The Informer 2019 x264 720p Esub BluRay Dual Audio English Hindi GOPI SAHI


The Informer (2019)

 

 

An ex-convict working undercover intentionally gets himself incarcerated again in order to infiltrate the mob at a maximum security prison.
EN

Director:

Andrea Di Stefano

Writers:

Matt Cook (screenplay by), Rowan Joffe (screenplay by) | 3 more credits »
 
 
6.6/10
16,871
 
Directed byAndrea Di Stefano
Produced by
  • Basil Iwanyk
  • Erica Lee
  • Mark Lane
  • Robert Jones
  • James Harris
  • Wayne Marc Godfrey
Screenplay by
  • Matt Cook
  • Andrea Di Stefano
  • Rowan Joffe
Based onThree Seconds
by Roslund/Hellström
Starring
Music by
  • Brooke Blair
  • Will Blair
CinematographyDaniel Katz
Edited byJob ter Burg
Production
company
Distributed by
Release date
  • 30 August 2019 (United Kingdom)
  • 6 November 2020 (United States)
Running time
113 minutes[1]
CountryUnited Kingdom
LanguageEnglish
Box office$2.6 million[1]
 

 


The Informer 2019 x264 720p Esub BluRay Dual Audio English Hindi GOPI SAHI


Format                         : Matroska
Format version                 : Version 4
File size                      : 888 MiB
Duration                       : 1 h 53 min
Overall bit rate               : 1 094 kb/s
Movie name                     : The Informer 2019 GOPI SAHI
Encoded date                   : UTC 2020-10-07 10:01:09

Video
ID                             : 1
Format                         : AVC
Format/Info                    : Advanced Video Codec
Format profile                 : [email protected]
Format settings                : CABAC / 5 Ref Frames
Format settings, CABAC         : Yes
Format settings, Reference fra : 5 frames
Codec ID                       : V_MPEG4/ISO/AVC
Duration                       : 1 h 53 min
Bit rate                       : 899 kb/s
Width                          : 1 280 pixels
Height                         : 534 pixels
Display aspect ratio           : 2.40:1
Frame rate mode                : Constant
Frame rate                     : 23.976 (24000/1001) FPS
Color space                    : YUV
Chroma subsampling             : 4:2:0
Bit depth                      : 8 bits
Scan type                      : Progressive
Bits/(Pixel*Frame)             : 0.055
Stream size                    : 729 MiB (82%)
Title                          : GOPI SAHI
Writing library                : x264 core 157 r2935 545de2f


Audio #1
ID                             : 2
Format                         : AAC LC
Format/Info                    : Advanced Audio Codec Low Complexity
Codec ID                       : A_AAC-2
Duration                       : 1 h 53 min
Bit rate                       : 96.0 kb/s
Channel(s)                     : 2 channels
Channel layout                 : L R
Sampling rate                  : 48.0 kHz
Frame rate                     : 46.875 FPS (1024 SPF)
Compression mode               : Lossy
Delay relative to video        : -21 ms
Stream size                    : 78.1 MiB (9%)
Title                          : GOPI SAHI
Language                       : Hindi
Default                        : Yes
Forced                         : No

Audio #2
ID                             : 3
Format                         : AAC LC
Format/Info                    : Advanced Audio Codec Low Complexity
Codec ID                       : A_AAC-2
Duration                       : 1 h 53 min
Bit rate                       : 96.0 kb/s
Channel(s)                     : 2 channels
Channel layout                 : L R
Sampling rate                  : 48.0 kHz
Frame rate                     : 46.875 FPS (1024 SPF)
Compression mode               : Lossy
Delay relative to video        : -21 ms
Stream size                    : 78.0 MiB (9%)
Title                          : GOPI SAHI
Language                       : English
Default                        : No
Forced                         : No

Text
ID                             : 4
Format                         : UTF-8
Codec ID                       : S_TEXT/UTF8
Codec ID/Info                  : UTF-8 Plain Text
Duration                       : 1 h 43 min
Bit rate                       : 48 b/s
Count of elements              : 1015
Stream size                    : 36.6 KiB (0%)
Title                          : GOPI SAHI
Language                       : English
Default                        : Yes
Forced                         : No

Menu
00:00:00.000                   : :Chapter 1
00:08:34.097                   : :Chapter 2
00:17:20.331                   : :Chapter 3
00:25:03.085                   : :Chapter 4
00:33:03.690                   : :Chapter 5
00:42:27.879                   : :Chapter 6
00:53:25.953                   : :Chapter 7
01:01:33.148                   : :Chapter 8
01:09:53.523                   : :Chapter 9
01:21:24.213                   : :Chapter 10
01:31:34.406                   : :Chapter 11
01:41:34.213                   : :Chapter 12