The Green Mile 1999 x264 720p Esub BluRay Dual Audio English Hindi GOPI SAHI

 

The Green Mile (1999)

 
 
The lives of guards on Death Row are affected by one of their charges: a black man accused of child murder and rape, yet who has a mysterious gift.
EN

Director:

Frank Darabont

Writers:

Stephen King (novel), Frank Darabont (screenplay)
 
8.6/10
1,121,856
Directed byFrank Darabont
Produced by
Screenplay byFrank Darabont
Based onThe Green Mile
by Stephen King
Starring
Music byThomas Newman
CinematographyDavid Tattersall
Edited byRichard Francis-Bruce
Production
company
Distributed byWarner Bros. (United States)
Universal Pictures (International)
Release date
  • December 10, 1999 (United States)
Running time
189 minutes
CountryUnited States
LanguageEnglish
Budget$60 million
Box office$286.8 million[1]

 


The Green Mile 1999 x264 720p Esub BluRay Dual Audio English Hindi GOPI SAHI


Format                         : Matroska
Format version                 : Version 4
File size                      : 1.44 GiB
Duration                       : 3 h 8 min
Overall bit rate               : 1 095 kb/s
Movie name                     : The Green Mile 1999 GOPI SAHI
Encoded date                   : UTC 2020-10-19 10:59:24

Video
ID                             : 1
Format                         : AVC
Format/Info                    : Advanced Video Codec
Format profile                 : [email protected]
Format settings                : CABAC / 5 Ref Frames
Format settings, CABAC         : Yes
Format settings, Reference fra : 5 frames
Codec ID                       : V_MPEG4/ISO/AVC
Duration                       : 3 h 8 min
Bit rate                       : 899 kb/s
Width                          : 1 280 pixels
Height                         : 714 pixels
Display aspect ratio           : 16:9
Frame rate mode                : Constant
Frame rate                     : 23.976 (24000/1001) FPS
Color space                    : YUV
Chroma subsampling             : 4:2:0
Bit depth                      : 8 bits
Scan type                      : Progressive
Bits/(Pixel*Frame)             : 0.041
Stream size                    : 1.18 GiB (82%)
Title                          : GOPI SAHI
Writing library                : x264 core 157 r2935 545de2f

Audio #1
ID                             : 2
Format                         : AAC LC
Format/Info                    : Advanced Audio Codec Low Complexity
Codec ID                       : A_AAC-2
Duration                       : 3 h 8 min
Bit rate                       : 96.0 kb/s
Channel(s)                     : 2 channels
Channel layout                 : L R
Sampling rate                  : 48.0 kHz
Frame rate                     : 46.875 FPS (1024 SPF)
Compression mode               : Lossy
Delay relative to video        : -80 ms
Stream size                    : 130 MiB (9%)
Title                          : GOPI SAHI
Language                       : Hindi
Default                        : Yes
Forced                         : No

Audio #2
ID                             : 3
Format                         : AAC LC
Format/Info                    : Advanced Audio Codec Low Complexity
Codec ID                       : A_AAC-2
Duration                       : 3 h 8 min
Bit rate                       : 96.0 kb/s
Channel(s)                     : 2 channels
Channel layout                 : L R
Sampling rate                  : 48.0 kHz
Frame rate                     : 46.875 FPS (1024 SPF)
Compression mode               : Lossy
Delay relative to video        : -104 ms
Stream size                    : 130 MiB (9%)
Title                          : GOPI SAHI
Language                       : English
Default                        : No
Forced                         : No

Text
ID                             : 4
Format                         : UTF-8
Codec ID                       : S_TEXT/UTF8
Codec ID/Info                  : UTF-8 Plain Text
Duration                       : 2 h 59 min
Bit rate                       : 45 b/s
Count of elements              : 1988
Stream size                    : 59.2 KiB (0%)
Title                          : GOPI SAHI
Language                       : English
Default                        : Yes
Forced                         : No




 MAGNET

TORRENT

MULTIUP

ANONFILES

BAYFILES

DWONLOAD AUTO START IN 20 SEC WAIT

DWONLOAD AUTO START IN 20 SEC WAIT

GDRIVE

CLOUDRU

MEDIAFIRE

ONLINE 720P

ONLINE 720P 2