The Godfather- Part Ii 1974 x264 720p Esub BluRay Dual Audio English Hindi GOPI SAHI

The Godfather: Part II (1974)

 

The early life and career of Vito Corleone in 1920s New York City is portrayed, while his son, Michael, expands and tightens his grip on the family crime syndicate.
EN

Writers:

Francis Ford Coppola (screenplay by), Mario Puzo (screenplay by) | 1 more credit »
 
9.0/10
1,104,566
 

Directed byFrancis Ford Coppola
Produced byFrancis Ford Coppola
Screenplay by
Based onThe Godfather
by Mario Puzo
Starring
Music byNino Rota
CinematographyGordon Willis
Edited by
Production
companies
Distributed byParamount Pictures
Release date
  • December 12, 1974 (New York City)
  • December 20, 1974 (United States)
Running time
200 minutes[1]
CountryUnited States
Language
  • English
  • Sicilian
Budget$13 million[2][3]
Box office$48–88 million[N 1]


The Godfather- Part II 1974 GOPI SAHI

Format                         : Matroska
Format version                 : Version 4
File size                      : 1.57 GiB
Duration                       : 3 h 22 min
Overall bit rate               : 1 110 kb/s
Movie name                     : The Godfather: Part II 1974 GOPI SAHI
Encoded date                   : UTC 2020-10-06 01:07:59

Video
ID                             : 1
Format                         : AVC
Format/Info                    : Advanced Video Codec
Format profile                 : [email protected]
Format settings                : CABAC / 5 Ref Frames
Format settings, CABAC         : Yes
Format settings, Reference fra : 5 frames
Codec ID                       : V_MPEG4/ISO/AVC
Duration                       : 3 h 22 min
Bit rate                       : 899 kb/s
Width                          : 1 280 pixels
Height                         : 720 pixels
Display aspect ratio           : 16:9
Frame rate mode                : Constant
Frame rate                     : 23.976 (24000/1001) FPS
Color space                    : YUV
Chroma subsampling             : 4:2:0
Bit depth                      : 8 bits
Scan type                      : Progressive
Bits/(Pixel*Frame)             : 0.041
Stream size                    : 1.27 GiB (81%)
Title                          : GOPI SAHI
Writing library                : x264 core 157 r2935 545de2f

Audio #1
ID                             : 2
Format                         : AAC LC
Format/Info                    : Advanced Audio Codec Low Complexity
Codec ID                       : A_AAC-2
Duration                       : 3 h 22 min
Bit rate                       : 96.0 kb/s
Channel(s)                     : 2 channels
Channel layout                 : L R
Sampling rate                  : 48.0 kHz
Frame rate                     : 46.875 FPS (1024 SPF)
Compression mode               : Lossy
Delay relative to video        : -7 ms
Stream size                    : 139 MiB (9%)
Title                          : GOPI SAHI
Language                       : Hindi
Default                        : Yes
Forced                         : No

Audio #2
ID                             : 3
Format                         : AAC LC
Format/Info                    : Advanced Audio Codec Low Complexity
Codec ID                       : A_AAC-2
Duration                       : 3 h 22 min
Bit rate                       : 96.0 kb/s
Channel(s)                     : 2 channels
Channel layout                 : L R
Sampling rate                  : 48.0 kHz
Frame rate                     : 46.875 FPS (1024 SPF)
Compression mode               : Lossy
Delay relative to video        : -21 ms
Stream size                    : 139 MiB (9%)
Title                          : GOPI SAHI
Language                       : English
Default                        : No
Forced                         : No

Text #1
ID                             : 4
Format                         : PGS
Muxing mode                    : zlib
Codec ID                       : S_HDMV/PGS
Codec ID/Info                  : Picture based subtitle format used on BDs/HD-DVDs
Duration                       : 3 h 20 min
Bit rate                       : 20.0 kb/s
Count of elements              : 3032
Stream size                    : 28.7 MiB (2%)
Title                          : GOPI SAHI
Language                       : Hindi
Default                        : Yes
Forced                         : Yes

Text #2
ID                             : 5
Format                         : PGS
Muxing mode                    : zlib
Codec ID                       : S_HDMV/PGS
Codec ID/Info                  : Picture based subtitle format used on BDs/HD-DVDs
Duration                       : 3 h 13 min
Bit rate                       : 35.5 kb/s
Count of elements              : 3004
Stream size                    : 49.1 MiB (3%)
Title                          : GOPI SAHI
Language                       : English
Default                        : No
Forced                         : No

Menu
00:00:00.000                   : :Chapter 1
00:03:40.429                   : :Chapter 2
00:07:29.824                   : :Chapter 3
00:12:04.766                   : :Chapter 4
00:16:18.186                   : :Chapter 5
00:27:38.115                   : :Chapter 6
00:34:28.191                   : :Chapter 7
00:43:44.705                   : :Chapter 8
00:49:32.511                   : :Chapter 9
00:59:50.087                   : :Chapter 10
01:12:52.034                   : :Chapter 11
01:17:13.587                   : :Chapter 12
01:26:18.882                   : :Chapter 13
01:47:22.227                   : :Chapter 14
01:50:17.027                   : :Chapter 15
01:55:32.426                   : :Chapter 16
02:06:50.853                   : :Chapter 17
02:13:12.526                   : :Chapter 18
02:20:50.651                   : :Chapter 19
02:28:29.692                   : :Chapter 20
02:33:35.957                   : :Chapter 21
02:37:57.009                   : :Chapter 22
02:44:08.505                   : :Chapter 23
02:51:08.508                   : :Chapter 24
02:56:46.721                   : :Chapter 25
03:01:32.882                   : :Chapter 26
03:05:20.401                   : :Chapter 27
03:07:25.860                   : :Chapter 28
03:12:01.677                   : :Chapter 29
03:16:57.014                   : :Chapter 30