The Cabin in the Woods 2011 x264 720p Esub BluRay Dual Audio English Hindi GOPI SAHI

The Cabin in the Woods (2011)

R | | Horror | 13 April 2012 (USA)

Five friends go for a break at a remote cabin, where they get more than they bargained for, discovering the truth behind the cabin in the woods.
EN

Director:

Drew Goddard

7.0/10
368,335

Directed byDrew Goddard
Produced byJoss Whedon
Written byJoss Whedon
Drew Goddard
StarringKristen Connolly
Chris Hemsworth
Anna Hutchison
Fran Kranz
Jesse Williams
Richard Jenkins
Bradley Whitford
Music byDavid Julyan
CinematographyPeter Deming
Edited byLisa Lassek
Production
company
Distributed byLionsgate
Release date
Running time
95 minutes[1]
CountryUnited States
LanguageEnglish
Budget$30 million[2]
Box office$66.5 million[3]



The Cabin in the Woods 2011 x264 720p Esub BluRay Dual Audio English Hindi GOPI SAHI

Format                         : Matroska
Format version                 : Version 4
File size                      : 744 MiB
Duration                       : 1 h 35 min
Overall bit rate               : 1 095 kb/s
Movie name                     : The Cabin in the Woods 2011 GOPI SAHI
Encoded date                   : UTC 2020-10-01 03:20:24

Video
ID                             : 1
Format                         : AVC
Format/Info                    : Advanced Video Codec
Format profile                 : [email protected]
Format settings                : CABAC / 5 Ref Frames
Format settings, CABAC         : Yes
Format settings, Reference fra : 5 frames
Codec ID                       : V_MPEG4/ISO/AVC
Duration                       : 1 h 35 min
Bit rate                       : 899 kb/s
Width                          : 1 280 pixels
Height                         : 534 pixels
Display aspect ratio           : 2.40:1
Frame rate mode                : Constant
Frame rate                     : 23.976 (24000/1001) FPS
Color space                    : YUV
Chroma subsampling             : 4:2:0
Bit depth                      : 8 bits
Scan type                      : Progressive
Bits/(Pixel*Frame)             : 0.055
Stream size                    : 611 MiB (82%)
Title                          : GOPI SAHI
Writing library                : x264 core 157 r2935 545de2f

Audio #1
ID                             : 2
Format                         : AAC LC
Format/Info                    : Advanced Audio Codec Low Complexity
Codec ID                       : A_AAC-2
Duration                       : 1 h 35 min
Bit rate                       : 96.0 kb/s
Channel(s)                     : 2 channels
Channel layout                 : L R
Sampling rate                  : 48.0 kHz
Frame rate                     : 46.875 FPS (1024 SPF)
Compression mode               : Lossy
Delay relative to video        : -21 ms
Stream size                    : 65.6 MiB (9%)
Title                          : GOPI SAHI
Language                       : Hindi
Default                        : Yes
Forced                         : No

Audio #2
ID                             : 3
Format                         : AAC LC
Format/Info                    : Advanced Audio Codec Low Complexity
Codec ID                       : A_AAC-2
Duration                       : 1 h 35 min
Bit rate                       : 96.0 kb/s
Channel(s)                     : 2 channels
Channel layout                 : L R
Sampling rate                  : 48.0 kHz
Frame rate                     : 46.875 FPS (1024 SPF)
Compression mode               : Lossy
Delay relative to video        : -21 ms
Stream size                    : 65.5 MiB (9%)
Title                          : GOPI SAHI
Language                       : English
Default                        : No
Forced                         : No

Text
ID                             : 4
Format                         : UTF-8
Codec ID                       : S_TEXT/UTF8
Codec ID/Info                  : UTF-8 Plain Text
Duration                       : 1 h 28 min
Bit rate                       : 44 b/s
Count of elements              : 983
Stream size                    : 29.1 KiB (0%)
Title                          : GOPI SAHI
Language                       : English
Default                        : Yes
Forced                         : No

Menu
00:00:00.000                   : :Weekend Away
00:07:07.427                   : :Nest is Empty
00:12:38.216                   : :Acquiring Targets
00:18:43.289                   : :The Cabin
00:24:20.876                   : :Picking Rooms
00:30:36.168                   : :Control
00:35:00.432                   : :Place Your Bets
00:43:14.801                   : :I Dare You
00:48:01.420                   : :Cellar Door
00:54:29.725                   : :Read It
01:00:13.568                   : :Spirits Rising
01:06:45.084                   : :Acting Strange
01:12:07.448                   : :Customer Satisfaction
01:16:41.222                   : :Eternal Slumber
01:23:36.178                   : :A Walk
01:29:50.260                   : :Lock Down