The Birds 1963 x264 720p Esub BluRay Dual Audio English Hindi GOPI SAHI

The Birds (1963)

PG-13 | | Drama, Horror, Mystery | 29 March 1963 (USA)
 
 
A wealthy San Francisco socialite pursues a potential boyfriend to a small Northern California town that slowly takes a turn for the bizarre when birds of all kinds suddenly begin to attack people.
EN

Director:

Alfred Hitchcock

Writers:

Daphne Du Maurier (from the story by), Evan Hunter (screenplay by)
 
7.7/10
168,649
Directed byAlfred Hitchcock
Produced byAlfred Hitchcock
Screenplay byEvan Hunter
Based onThe Birds
by Daphne du Maurier
Starring
CinematographyRobert Burks, ASC
Edited byGeorge Tomasini
Production
company
Alfred J. Hitchcock Productions
Distributed byUniversal Pictures
Release date
  • March 28, 1963
Running time
120 minutes
CountryUnited States
LanguageEnglish
Budget$3.3 million[1]
Box office$11.4 million[2]

 

The Birds 1963 x264 720p Esub BluRay Dual Audio English Hindi GOPI SAHI


Format                         : Matroska
Format version                 : Version 4
File size                      : 953 MiB
Duration                       : 1 h 59 min
Overall bit rate               : 1 115 kb/s
Movie name                     : The Birds 1963 GOPI SAHI
Encoded date                   : UTC 2020-10-22 15:21:56

Video
ID                             : 1
Format                         : AVC
Format/Info                    : Advanced Video Codec
Format profile                 : [email protected]
Format settings                : CABAC / 5 Ref Frames
Format settings, CABAC         : Yes
Format settings, Reference fra : 5 frames
Codec ID                       : V_MPEG4/ISO/AVC
Duration                       : 1 h 59 min
Bit rate                       : 899 kb/s
Width                          : 1 280 pixels
Height                         : 690 pixels
Display aspect ratio           : 1.85:1
Frame rate mode                : Constant
Frame rate                     : 23.976 (24000/1001) FPS
Color space                    : YUV
Chroma subsampling             : 4:2:0
Bit depth                      : 8 bits
Scan type                      : Progressive
Bits/(Pixel*Frame)             : 0.042
Stream size                    : 768 MiB (81%)
Title                          : GOPI SAHI
Writing library                : x264 core 157 r2935 545de2f

Audio #1
ID                             : 2
Format                         : AAC LC
Format/Info                    : Advanced Audio Codec Low Complexity
Codec ID                       : A_AAC-2
Duration                       : 1 h 59 min
Bit rate                       : 96.0 kb/s
Channel(s)                     : 2 channels
Channel layout                 : L R
Sampling rate                  : 48.0 kHz
Frame rate                     : 46.875 FPS (1024 SPF)
Compression mode               : Lossy
Delay relative to video        : 33 ms
Stream size                    : 82.4 MiB (9%)
Title                          : GOPI SAHI
Language                       : Hindi
Default                        : Yes
Forced                         : No

Audio #2
ID                             : 3
Format                         : AAC LC
Format/Info                    : Advanced Audio Codec Low Complexity
Codec ID                       : A_AAC-2
Duration                       : 1 h 59 min
Bit rate                       : 96.0 kb/s
Channel(s)                     : 2 channels
Channel layout                 : L R
Sampling rate                  : 48.0 kHz
Frame rate                     : 46.875 FPS (1024 SPF)
Compression mode               : Lossy
Delay relative to video        : -21 ms
Stream size                    : 82.4 MiB (9%)
Title                          : GOPI SAHI
Language                       : English
Default                        : No
Forced                         : No

Text #1
ID                             : 4
Format                         : PGS
Muxing mode                    : zlib
Codec ID                       : S_HDMV/PGS
Codec ID/Info                  : Picture based subtitle format used on BDs/HD-DVDs
Duration                       : 1 h 57 min
Bit rate                       : 26.3 kb/s
Count of elements              : 2436
Stream size                    : 22.1 MiB (2%)
Title                          : GOPI SAHI
Language                       : Hindi
Default                        : Yes
Forced                         : Yes

Text #2
ID                             : 5
Format                         : PGS
Muxing mode                    : zlib
Codec ID                       : S_HDMV/PGS
Codec ID/Info                  : Picture based subtitle format used on BDs/HD-DVDs
Duration                       : 1 h 58 min
Bit rate                       : 39.2 kb/s
Count of elements              : 3158
Stream size                    : 33.3 MiB (3%)
Title                          : GOPI SAHI
Language                       : English
Default                        : No
Forced                         : No

Menu
00:00:00.000                   : :Chapter 1
00:01:45.230                   : :Chapter 2
00:09:35.909                   : :Chapter 3
00:20:05.871                   : :Chapter 4
00:29:35.357                   : :Chapter 5
00:32:16.393                   : :Chapter 6
00:40:59.791                   : :Chapter 7
00:47:49.450                   : :Chapter 8
00:54:01.572                   : :Chapter 9
00:58:52.738                   : :Chapter 10
01:08:16.134                   : :Chapter 11
01:15:48.461                   : :Chapter 12
01:24:26.228                   : :Chapter 13
01:26:19.299                   : :Chapter 14
01:28:02.194                   : :Chapter 15
01:29:43.169                   : :Chapter 16
01:33:55.630                   : :Chapter 17
01:45:14.767                   : :Chapter 18
01:51:16.503                   : :Chapter 19
01:56:19.473                   : :Chapter 20