The Adventures of Rocky Bullwinkle 2000 x264 720p Esub BluRay Dual Audio English Hindi GOPI SAHI

The Adventures of Rocky & Bullwinkle (2000)

 
 
When enemies Boris, Natasha, and Fearless Leader escape into the real world with a nefarious scheme, Rocky and Bullwinkle do the same, and team up with a young F.B.I. Agent to stop the trio.
EN

Director:

Des McAnuff

Writers:

Jay Ward (characters), Kenneth Lonergan
 
4.2/10
19,196
Directed byDes McAnuff
Produced byRobert De Niro
Jane Rosenthal
Written byKenneth Lonergan
Based onThe Adventures of Rocky and Bullwinkle and Friends
by Jay Ward
Starring
Music byMark Mothersbaugh
CinematographyThomas E. Ackerman
Edited byDennis Virkler
Production
companies
Distributed byUniversal Pictures
Release date
  • June 30, 2000
Running time
92 minutes[1]
CountryUnited States
LanguageEnglish
Budget$76 million[2]
Box office$35.1 million[2]

 

 

The Adventures of Rocky Bullwinkle 2000 x264 720p Esub BluRay Dual Audio English Hindi GOPI SAHI


Format                         : Matroska
Format version                 : Version 4
File size                      : 719 MiB
Duration                       : 1 h 31 min
Overall bit rate               : 1 094 kb/s
Movie name                     : The Adventures of Rocky Bullwinkle 2000 GOPI SAHI
Encoded date                   : UTC 2020-10-21 14:31:09

Video
ID                             : 1
Format                         : AVC
Format/Info                    : Advanced Video Codec
Format profile                 : [email protected]
Format settings                : CABAC / 5 Ref Frames
Format settings, CABAC         : Yes
Format settings, Reference fra : 5 frames
Codec ID                       : V_MPEG4/ISO/AVC
Duration                       : 1 h 31 min
Bit rate                       : 899 kb/s
Width                          : 1 280 pixels
Height                         : 694 pixels
Display aspect ratio           : 1.85:1
Frame rate mode                : Constant
Frame rate                     : 23.976 (24000/1001) FPS
Color space                    : YUV
Chroma subsampling             : 4:2:0
Bit depth                      : 8 bits
Scan type                      : Progressive
Bits/(Pixel*Frame)             : 0.042
Stream size                    : 589 MiB (82%)
Title                          : GOPI SAHI
Writing library                : x264 core 157 r2935 545de2f

Audio #1
ID                             : 2
Format                         : AAC LC
Format/Info                    : Advanced Audio Codec Low Complexity
Codec ID                       : A_AAC-2
Duration                       : 1 h 31 min
Bit rate                       : 96.0 kb/s
Channel(s)                     : 2 channels
Channel layout                 : L R
Sampling rate                  : 48.0 kHz
Frame rate                     : 46.875 FPS (1024 SPF)
Compression mode               : Lossy
Delay relative to video        : -62 ms
Stream size                    : 63.5 MiB (9%)
Title                          : GOPI SAHI
Language                       : Hindi
Default                        : Yes
Forced                         : No

Audio #2
ID                             : 3
Format                         : AAC LC
Format/Info                    : Advanced Audio Codec Low Complexity
Codec ID                       : A_AAC-2
Duration                       : 1 h 31 min
Bit rate                       : 96.0 kb/s
Channel(s)                     : 2 channels
Channel layout                 : L R
Sampling rate                  : 48.0 kHz
Frame rate                     : 46.875 FPS (1024 SPF)
Compression mode               : Lossy
Delay relative to video        : -64 ms
Stream size                    : 63.4 MiB (9%)
Title                          : GOPI SAHI
Language                       : English
Default                        : No
Forced                         : No

Text #1
ID                             : 4
Format                         : UTF-8
Codec ID                       : S_TEXT/UTF8
Codec ID/Info                  : UTF-8 Plain Text
Duration                       : 1 h 30 min
Bit rate                       : 72 b/s
Count of elements              : 1654
Stream size                    : 48.0 KiB (0%)
Title                          : GOPI SAHI
Language                       : English
Default                        : Yes
Forced                         : No

Text #2
ID                             : 5
Format                         : UTF-8
Codec ID                       : S_TEXT/UTF8
Codec ID/Info                  : UTF-8 Plain Text
Duration                       : 1 h 30 min
Bit rate                       : 179 b/s
Count of elements              : 1119
Stream size                    : 119 KiB (0%)
Title                          : GOPI SAHI
Language                       : Hindi
Default                        : No
Forced                         : No

Menu
00:00:00.043                   : :00:00:00.000
00:09:53.302                   : :00:09:53.301
00:17:52.823                   : :00:17:52.780
00:27:02.247                   : :00:27:02.120
00:34:10.592                   : :00:34:10.590
00:40:14.830                   : :00:40:14.829
00:46:28.287                   : :00:46:28.285
00:56:45.278                   : :00:56:45.277
01:04:33.913                   : :01:04:33.912
01:13:48.842                   : :01:13:48.758
01:18:28.288                   : :01:18:28.162
01:24:17.721                   : :01:24:17.636