Sucker Punch 2011 x264 720p Esub BluRay Dual Audio English Hindi GOPI SAHI

 

Sucker Punch (2011)

 
A young girl institutionalized by her abusive stepfather retreats to an alternative reality as a coping strategy and envisions a plan to help her escape.
EN

Director:

Zack Snyder

Writers:

Zack Snyder (screenplay), Steve Shibuya (screenplay) | 1 more credit »
 
6.0/10
227,992
Directed byZack Snyder
Produced by
Screenplay by
Story byZack Snyder
Starring
Music by
CinematographyLarry Fong
Edited byWilliam Hoy
Production
companies
Distributed byWarner Bros. Pictures
Release date
  • March 25, 2011
Running time
109 minutes[1]
Country
LanguageEnglish
Budget$82 million[4]
Box office$90 million[4]

 

 

 

Sucker Punch 2011 x264 720p Esub BluRay Dual Audio English Hindi GOPI SAHI


Format                         : Matroska
Format version                 : Version 4
File size                      : 998 MiB
Duration                       : 2 h 7 min
Overall bit rate               : 1 094 kb/s
Movie name                     : Sucker Punch 2011 GOPI SAHI
Encoded date                   : UTC 2020-10-23 01:57:37

Video
ID                             : 1
Format                         : AVC
Format/Info                    : Advanced Video Codec
Format profile                 : [email protected]
Format settings                : CABAC / 5 Ref Frames
Format settings, CABAC         : Yes
Format settings, Reference fra : 5 frames
Codec ID                       : V_MPEG4/ISO/AVC
Duration                       : 2 h 7 min
Bit rate                       : 899 kb/s
Width                          : 1 280 pixels
Height                         : 534 pixels
Display aspect ratio           : 2.40:1
Frame rate mode                : Constant
Frame rate                     : 23.976 (24000/1001) FPS
Color space                    : YUV
Chroma subsampling             : 4:2:0
Bit depth                      : 8 bits
Scan type                      : Progressive
Bits/(Pixel*Frame)             : 0.055
Stream size                    : 820 MiB (82%)
Title                          : GOPI SAHI
Writing library                : x264 core 157 r2935 545de2f

Audio #1
ID                             : 2
Format                         : AAC LC
Format/Info                    : Advanced Audio Codec Low Complexity
Codec ID                       : A_AAC-2
Duration                       : 2 h 7 min
Bit rate                       : 96.0 kb/s
Channel(s)                     : 2 channels
Channel layout                 : L R
Sampling rate                  : 48.0 kHz
Frame rate                     : 46.875 FPS (1024 SPF)
Compression mode               : Lossy
Delay relative to video        : -21 ms
Stream size                    : 87.9 MiB (9%)
Title                          : GOPI SAHI
Language                       : Hindi
Default                        : Yes
Forced                         : No

Audio #2
ID                             : 3
Format                         : AAC LC
Format/Info                    : Advanced Audio Codec Low Complexity
Codec ID                       : A_AAC-2
Duration                       : 2 h 7 min
Bit rate                       : 96.0 kb/s
Channel(s)                     : 2 channels
Channel layout                 : L R
Sampling rate                  : 48.0 kHz
Frame rate                     : 46.875 FPS (1024 SPF)
Compression mode               : Lossy
Delay relative to video        : -21 ms
Stream size                    : 87.9 MiB (9%)
Title                          : GOPI SAHI
Language                       : English
Default                        : No
Forced                         : No

Text
ID                             : 4
Format                         : UTF-8
Codec ID                       : S_TEXT/UTF8
Codec ID/Info                  : UTF-8 Plain Text
Duration                       : 2 h 1 min
Bit rate                       : 36 b/s
Count of elements              : 1146
Stream size                    : 32.6 KiB (0%)
Title                          : GOPI SAHI
Language                       : English
Default                        : Yes
Forced                         : No

Menu
00:00:00.000                   : :Chapter 1
00:05:59.985                   : :Chapter 2
00:12:25.703                   : :Chapter 3
00:24:59.456                   : :Chapter 4
00:36:15.423                   : :Chapter 5
00:42:35.678                   : :Chapter 6
00:57:42.626                   : :Chapter 7
01:01:29.811                   : :Chapter 8
01:21:13.118                   : :Chapter 9
01:37:03.443                   : :Chapter 10
01:53:19.543                   : :Chapter 11
02:01:45.924                   : :Chapter 12



MAGNET

TORRENT

MULTIUP

DWONLOAD AUTO START IN 20 SEC WAIT

DWONLOAD AUTO START IN 20 SEC WAIT

GDRIVE

CLOUDRU


MEDIAFIRE

DOSYA

USAUPLOAD

ONLINE 720P