Snow White And The Seven Dwarfs 1937 x264 720p Esub BluRay Dual Audio English Hindi GOPI SAHI

Snow White and the Seven Dwarfs (1937)

Approved | | Animation, Family, Fantasy | 4 February 1938 (USA) 
 
Exiled into the dangerous forest by her wicked stepmother, a princess is rescued by seven dwarf miners who make her part of their household.
EN

Writers:

Jacob Grimm (fairy tales) (as Grimm), Wilhelm Grimm (fairy tales) (as Grimm) | 8 more credits »
 
7.6/10
178,598
 
Directed by
Produced byWalt Disney
Written by
Based onSnow White
by The Brothers Grimm
Starring
Music by
Production
company
Distributed byRKO Radio Pictures
Release date
‹See TfM›
Running time
83 minutes
CountryUnited States
LanguageEnglish
Budget$1.49 million[1]
Box office$418 million[2]

 

 

Snow White And The Seven Dwarfs 1937 GOPI SAHI


Format                         : Matroska
Format version                 : Version 4
File size                      : 652 MiB
Duration                       : 1 h 23 min
Overall bit rate               : 1 095 kb/s
Movie name                     : Snow White And The Seven Dwarfs 1937 GOPI SAHI
Encoded date                   : UTC 2020-10-27 15:51:56
Writing application            : mkvmerge v46.0.0 ('No Deeper Escape') 32-bit
Writing library                : libebml v1.3.10 + libmatroska v1.5.2

Video
ID                             : 1
Format                         : AVC
Format/Info                    : Advanced Video Codec
Format profile                 : [email protected]
Format settings                : CABAC / 5 Ref Frames
Format settings, CABAC         : Yes
Format settings, Reference fra : 5 frames
Codec ID                       : V_MPEG4/ISO/AVC
Duration                       : 1 h 23 min
Bit rate                       : 899 kb/s
Width                          : 1 280 pixels
Height                         : 952 pixels
Display aspect ratio           : 4:3
Frame rate mode                : Constant
Frame rate                     : 23.976 (24000/1001) FPS
Color space                    : YUV
Chroma subsampling             : 4:2:0
Bit depth                      : 8 bits
Scan type                      : Progressive
Bits/(Pixel*Frame)             : 0.031
Stream size                    : 535 MiB (82%)
Title                          : GOPI SAHI
Writing library                : x264 core 157 r2935 545de2f

Audio #1
ID                             : 2
Format                         : AAC LC
Format/Info                    : Advanced Audio Codec Low Complexity
Codec ID                       : A_AAC-2
Duration                       : 1 h 23 min
Bit rate                       : 96.0 kb/s
Channel(s)                     : 2 channels
Channel layout                 : L R
Sampling rate                  : 48.0 kHz
Frame rate                     : 46.875 FPS (1024 SPF)
Compression mode               : Lossy
Delay relative to video        : -64 ms
Stream size                    : 57.3 MiB (9%)
Title                          : GOPI SAHI
Language                       : English
Default                        : No
Forced                         : No

Audio #2
ID                             : 4
Format                         : AAC LC
Format/Info                    : Advanced Audio Codec Low Complexity
Codec ID                       : A_AAC-2
Duration                       : 1 h 23 min
Bit rate                       : 96.0 kb/s
Channel(s)                     : 2 channels
Channel layout                 : L R
Sampling rate                  : 48.0 kHz
Frame rate                     : 46.875 FPS (1024 SPF)
Compression mode               : Lossy
Delay relative to video        : -64 ms
Stream size                    : 57.4 MiB (9%)
Title                          : GOPI SAHI
Language                       : Hindi
Default                        : No
Forced                         : No

Text
ID                             : 3
Format                         : UTF-8
Codec ID                       : S_TEXT/UTF8
Codec ID/Info                  : UTF-8 Plain Text
Duration                       : 1 h 20 min
Bit rate                       : 41 b/s
Count of elements              : 1043
Stream size                    : 24.5 KiB (0%)
Title                          : GOPI SAHI
Language                       : English
Default                        : Yes
Forced                         : No



 

 MAGNET

TORRENT

MULTIUP

DWONLOAD AUTO START IN 20 SEC WAIT

DWONLOAD AUTO START IN 20 SEC WAIT

GDRIVE


CLOUDRU

MEDIAFIRE

DOSYA

USAUPLOAD


ONLINE 720P