Snatch 2000 x264 720p Esub BluRay Dual Audio English Hindi GOPI SAHI

 

Snatch (2000)

 
Unscrupulous boxing promoters, violent bookmakers, a Russian gangster, incompetent amateur robbers and supposedly Jewish jewelers fight to track down a priceless stolen diamond.
EN

Director:

Guy Ritchie

Writer:

Guy Ritchie
 
8.3/10
770,095
Directed byGuy Ritchie
Produced byMatthew Vaughn
Written byGuy Ritchie
Starring
Music byJohn Murphy
CinematographyTim Maurice-Jones
Edited byJon Harris
Production
company
Distributed bySony Pictures Releasing
Release date
  • 23 August 2000 (UK)
  • 19 January 2001 (US)
Running time
102 minutes[1]
Country
  • United Kingdom
  • United States[2]
LanguageEnglish
Budget$10 million[3]
Box office$83.6 million[4]

 

 


Snatch 2000 x264 720p Esub BluRay Dual Audio English Hindi GOPI SAHI


Format                         : Matroska
Format version                 : Version 4
File size                      : 853 MiB
Duration                       : 1 h 42 min
Overall bit rate               : 1 160 kb/s
Movie name                     : Snatch 2000 GOPISAHI
Encoded date                   : UTC 2020-03-08 06:25:31

Video
ID                             : 1
Format                         : AVC
Format/Info                    : Advanced Video Codec
Format profile                 : [email protected]
Format settings                : CABAC / 9 Ref Frames
Format settings, CABAC         : Yes
Format settings, Reference fra : 9 frames
Codec ID                       : V_MPEG4/ISO/AVC
Duration                       : 1 h 42 min
Bit rate                       : 899 kb/s
Width                          : 1 280 pixels
Height                         : 694 pixels
Display aspect ratio           : 1.85:1
Frame rate mode                : Constant
Frame rate                     : 23.976 (24000/1001) FPS
Color space                    : YUV
Chroma subsampling             : 4:2:0
Bit depth                      : 8 bits
Scan type                      : Progressive
Bits/(Pixel*Frame)             : 0.042
Stream size                    : 660 MiB (77%)
Title                          : GOPISAHI
Writing library                : x264 core 157 r2935 545de2f

Audio #1
ID                             : 2
Format                         : AAC LC
Format/Info                    : Advanced Audio Codec Low Complexity
Codec ID                       : A_AAC-2
Duration                       : 1 h 42 min
Bit rate                       : 96.0 kb/s
Channel(s)                     : 2 channels
Channel layout                 : L R
Sampling rate                  : 48.0 kHz
Frame rate                     : 46.875 FPS (1024 SPF)
Compression mode               : Lossy
Delay relative to video        : -21 ms
Stream size                    : 71.0 MiB (8%)
Title                          : GOPISAHI
Language                       : Hindi
Default                        : Yes
Forced                         : No

Audio #2
ID                             : 3
Format                         : AAC LC
Format/Info                    : Advanced Audio Codec Low Complexity
Codec ID                       : A_AAC-2
Duration                       : 1 h 42 min
Bit rate                       : 96.0 kb/s
Channel(s)                     : 2 channels
Channel layout                 : L R
Sampling rate                  : 48.0 kHz
Frame rate                     : 46.875 FPS (1024 SPF)
Compression mode               : Lossy
Delay relative to video        : -21 ms
Stream size                    : 70.9 MiB (8%)
Title                          : GOPISAHI
Language                       : English
Default                        : No
Forced                         : No

Text #1
ID                             : 4
Format                         : PGS
Muxing mode                    : zlib
Codec ID                       : S_HDMV/PGS
Codec ID/Info                  : Picture based subtitle format used on BDs/HD-DVDs
Duration                       : 1 h 38 min
Bit rate                       : 33.0 kb/s
Count of elements              : 2738
Stream size                    : 23.3 MiB (3%)
Title                          : GOPISAHI
Language                       : Hindi
Default                        : Yes
Forced                         : No

Text #2
ID                             : 5
Format                         : PGS
Muxing mode                    : zlib
Codec ID                       : S_HDMV/PGS
Codec ID/Info                  : Picture based subtitle format used on BDs/HD-DVDs
Duration                       : 1 h 38 min
Bit rate                       : 37.8 kb/s
Count of elements              : 2692
Stream size                    : 26.6 MiB (3%)
Title                          : GOPISAHI
Language                       : English
Default                        : No
Forced                         : No

Text #3
ID                             : 6
Format                         : PGS
Muxing mode                    : zlib
Codec ID                       : S_HDMV/PGS
Codec ID/Info                  : Picture based subtitle format used on BDs/HD-DVDs
Duration                       : 1 h 41 min
Bit rate                       : 29.9 kb/s
Count of elements              : 3156
Stream size                    : 21.7 MiB (3%)
Title                          : GOPISAHI
Language                       : English
Default                        : No
Forced                         : No

Text #4
ID                             : 7
Format                         : PGS
Muxing mode                    : zlib
Codec ID                       : S_HDMV/PGS
Codec ID/Info                  : Picture based subtitle format used on BDs/HD-DVDs
Duration                       : 1 h 39 min
Bit rate                       : 54.9 kb/s
Count of elements              : 2878
Stream size                    : 39.0 MiB (5%)
Title                          : GOPISAHI
Language                       : English
Default                        : No
Forced                         : No

Text #5
ID                             : 8
Format                         : PGS
Muxing mode                    : zlib
Codec ID                       : S_HDMV/PGS
Codec ID/Info                  : Picture based subtitle format used on BDs/HD-DVDs
Duration                       : 1 h 10 min
Bit rate                       : 2 901 b/s
Count of elements              : 146
Stream size                    : 1.46 MiB (0%)
Title                          : GOPISAHI
Language                       : English
Default                        : No
Forced                         : No




 MAGNET

TORRENT

MULTIUP

ANONFILES

BAYFILES

DWONLOAD AUTO START IN 20 SEC WAIT

DWONLOAD AUTO START IN 20 SEC WAIT

GDRIVE

CLOUDRU

MEDIAFIRE

DOSYA

USAUPLOAD

ONLINE 720P


ONLINE 720P