Shutter Island 2010 x264 720p Esub BluRay Dual Audio English Hindi GOPI SAHI

 

Shutter Island (2010)

 
 
 
In 1954, a U.S. Marshal investigates the disappearance of a murderer who escaped from a hospital for the criminally insane.
EN

Director:

Martin Scorsese

Writers:

Laeta Kalogridis (screenplay), Dennis Lehane (novel)
 
8.2/10

1,102,863

 

Directed byMartin Scorsese
Produced by
Screenplay byLaeta Kalogridis
Based onShutter Island
by Dennis Lehane
Starring
CinematographyRobert Richardson
Edited byThelma Schoonmaker
Production
company
Distributed byParamount Pictures
Release date
  • February 13, 2010 (Berlin)
  • February 19, 2010 (United States)
Running time
139 minutes
CountryUnited States
LanguageEnglish
Budget$80 million[1]
Box office$294.8 million[2]

 

 


Shutter Island 2010 x264 720p Esub BluRay Dual Audio English Hindi GOPI SAHI


Format                         : Matroska
Format version                 : Version 4
File size                      : 1.14 GiB
Duration                       : 2 h 18 min
Overall bit rate               : 1 180 kb/s
Movie name                     : Shutter Island 2010 GOPI SAHI
Encoded date                   : UTC 2020-10-08 01:12:02

Video
ID                             : 1
Format                         : AVC
Format/Info                    : Advanced Video Codec
Format profile                 : [email protected]
Format settings                : CABAC / 5 Ref Frames
Format settings, CABAC         : Yes
Format settings, Reference fra : 5 frames
Codec ID                       : V_MPEG4/ISO/AVC
Duration                       : 2 h 18 min
Bit rate                       : 899 kb/s
Width                          : 1 280 pixels
Height                         : 544 pixels
Display aspect ratio           : 2.35:1
Frame rate mode                : Constant
Frame rate                     : 23.976 (24000/1001) FPS
Color space                    : YUV
Chroma subsampling             : 4:2:0
Bit depth                      : 8 bits
Scan type                      : Progressive
Bits/(Pixel*Frame)             : 0.054
Stream size                    : 888 MiB (76%)
Title                          : GOPI SAHI
Writing library                : x264 core 157 r2935 545de2f


Audio #1
ID                             : 2
Format                         : AAC LC
Format/Info                    : Advanced Audio Codec Low Complexity
Codec ID                       : A_AAC-2
Duration                       : 2 h 18 min
Bit rate                       : 96.0 kb/s
Channel(s)                     : 2 channels
Channel layout                 : L R
Sampling rate                  : 48.0 kHz
Frame rate                     : 46.875 FPS (1024 SPF)
Compression mode               : Lossy
Delay relative to video        : 1 s 399 ms
Stream size                    : 95.1 MiB (8%)
Title                          : GOPI SAHI
Language                       : Hindi
Default                        : Yes
Forced                         : No

Audio #2
ID                             : 3
Format                         : AAC LC
Format/Info                    : Advanced Audio Codec Low Complexity
Codec ID                       : A_AAC-2
Duration                       : 2 h 18 min
Bit rate                       : 96.0 kb/s
Channel(s)                     : 2 channels
Channel layout                 : L R
Sampling rate                  : 48.0 kHz
Frame rate                     : 46.875 FPS (1024 SPF)
Compression mode               : Lossy
Delay relative to video        : -21 ms
Stream size                    : 95.1 MiB (8%)
Title                          : GOPI SAHI
Language                       : English
Default                        : No
Forced                         : No

Text #1
ID                             : 4
Format                         : PGS
Muxing mode                    : zlib
Codec ID                       : S_HDMV/PGS
Codec ID/Info                  : Picture based subtitle format used on BDs/HD-DVDs
Duration                       : 2 h 8 min
Bit rate                       : 25.7 kb/s
Count of elements              : 3132
Stream size                    : 23.7 MiB (2%)
Title                          : GOPI SAHI
Language                       : Hindi
Default                        : No
Forced                         : No

Text #2
ID                             : 5
Format                         : PGS
Muxing mode                    : zlib
Codec ID                       : S_HDMV/PGS
Codec ID/Info                  : Picture based subtitle format used on BDs/HD-DVDs
Duration                       : 2 h 8 min
Bit rate                       : 37.1 kb/s
Count of elements              : 3114
Stream size                    : 34.1 MiB (3%)
Title                          : GOPI SAHI
Language                       : English
Default                        : No
Forced                         : No

Text #3
ID                             : 6
Format                         : PGS
Muxing mode                    : zlib
Codec ID                       : S_HDMV/PGS
Codec ID/Info                  : Picture based subtitle format used on BDs/HD-DVDs
Duration                       : 2 h 8 min
Bit rate                       : 68.0 kb/s
Count of elements              : 3446
Stream size                    : 62.7 MiB (5%)
Title                          : GOPI SAHI
Language                       : Tamil
Default                        : No
Forced                         : No

Text #4
ID                             : 7
Format                         : PGS
Muxing mode                    : zlib
Codec ID                       : S_HDMV/PGS
Codec ID/Info                  : Picture based subtitle format used on BDs/HD-DVDs
Duration                       : 2 h 17 min
Bit rate                       : 42.3 kb/s
Count of elements              : 3358
Stream size                    : 41.5 MiB (4%)
Title                          : GOPI SAHI
Language                       : Telugu
Default                        : No
Forced                         : No

Menu
00:00:00.000                   : :00:00:00.000
00:06:33.226                   : :00:06:33.143
00:13:07.912                   : :00:13:07.787
00:20:21.053                   : :00:20:20.928
00:26:35.803                   : :00:26:35.636
00:34:54.884                   : :00:34:54.801
00:41:23.564                   : :00:41:23.523
00:48:29.657                   : :00:48:29.573
00:55:18.106                   : :00:55:17.898
01:04:02.672                   : :01:04:02.672
01:10:05.493                   : :01:10:05.410
01:16:54.485                   : :01:16:54.401
01:23:05.772                   : :01:23:05.731
01:31:38.034                   : :01:31:37.742
01:37:29.844                   : :01:37:29.719
01:45:39.208                   : :01:45:39.083
01:52:29.868                   : :01:52:29.785
01:57:40.053                   : :01:57:39.970
02:03:51.090                   : :02:03:50.923
02:10:31.282                   : :02:10:30.990



 MAGNET

TORRENT

MULTIUP

ANONFILES

BAYFILES

DWONLOAD AUTO START IN 20 SEC WAIT

DWONLOAD AUTO START IN 20 SEC WAIT

GDRIVE

CLOUDRU

MEDIAFIRE


ONLINE 720P


ONLINE 720P 2