Shazam! 2019 x264 720p Esub BluRay Dual Audio English Hindi GOPI SAHI

Shazam! (2019)

PG-13 | | Action, Adventure, Comedy | 5 April 2019 (USA)
 
A newly fostered young boy in search of his mother instead finds unexpected super powers and soon gains a powerful enemy.
EN

Director:

David F. Sandberg

Writers:

Henry Gayden (screenplay by), Henry Gayden (story by) | 3 more credits »
 
7.1/10
244,407
Directed byDavid F. Sandberg
Produced byPeter Safran
Screenplay byHenry Gayden
Story by
Based on
Starring
Music byBenjamin Wallfisch
CinematographyMaxime Alexandre
Edited byMichel Aller
Production
company
Distributed byWarner Bros. Pictures
Release date
  • March 15, 2019 (Toronto)
  • April 5, 2019 (United States)
Running time
132 minutes[2]
CountryUnited States
LanguageEnglish
Budget$80–100 million[3][4]
Box office$366 million[5]

 

Shazam! 2019 x264 720p Esub BluRay Dual Audio English Hindi GOPI SAHI


Format                         : Matroska
Format version                 : Version 4
File size                      : 1.02 GiB
Duration                       : 2 h 11 min
Overall bit rate               : 1 107 kb/s
Movie name                     : Shazam! 2019 GOPI SAHI
Encoded date                   : UTC 2020-10-20 20:38:31

Video
ID                             : 1
Format                         : AVC
Format/Info                    : Advanced Video Codec
Format profile                 : [email protected]
Format settings                : CABAC / 5 Ref Frames
Format settings, CABAC         : Yes
Format settings, Reference fra : 5 frames
Codec ID                       : V_MPEG4/ISO/AVC
Duration                       : 2 h 11 min
Bit rate                       : 899 kb/s
Width                          : 1 280 pixels
Height                         : 536 pixels
Display aspect ratio           : 2.40:1
Frame rate mode                : Constant
Frame rate                     : 23.976 (24000/1001) FPS
Color space                    : YUV
Chroma subsampling             : 4:2:0
Bit depth                      : 8 bits
Scan type                      : Progressive
Bits/(Pixel*Frame)             : 0.055
Stream size                    : 847 MiB (81%)
Title                          : GOPI SAHI
Writing library                : x264 core 157 r2935 545de2f


Audio #1
ID                             : 2
Format                         : AAC LC
Format/Info                    : Advanced Audio Codec Low Complexity
Codec ID                       : A_AAC-2
Duration                       : 2 h 11 min
Bit rate                       : 96.0 kb/s
Channel(s)                     : 2 channels
Channel layout                 : L R
Sampling rate                  : 48.0 kHz
Frame rate                     : 46.875 FPS (1024 SPF)
Compression mode               : Lossy
Delay relative to video        : -21 ms
Stream size                    : 90.8 MiB (9%)
Title                          : GOPI SAHI
Language                       : Hindi
Default                        : Yes
Forced                         : No

Audio #2
ID                             : 3
Format                         : AAC LC
Format/Info                    : Advanced Audio Codec Low Complexity
Codec ID                       : A_AAC-2
Duration                       : 2 h 11 min
Bit rate                       : 96.0 kb/s
Channel(s)                     : 2 channels
Channel layout                 : L R
Sampling rate                  : 48.0 kHz
Frame rate                     : 46.875 FPS (1024 SPF)
Compression mode               : Lossy
Delay relative to video        : -21 ms
Stream size                    : 90.8 MiB (9%)
Title                          : GOPI SAHI
Language                       : English
Default                        : No
Forced                         : No

Text #1
ID                             : 4
Format                         : PGS
Muxing mode                    : zlib
Codec ID                       : S_HDMV/PGS
Codec ID/Info                  : Picture based subtitle format used on BDs/HD-DVDs
Duration                       : 2 h 8 min
Bit rate                       : 625 b/s
Count of elements              : 106
Stream size                    : 587 KiB (0%)
Title                          : GOPI SAHI
Language                       : Hindi
Default                        : Yes
Forced                         : Yes

Text #2
ID                             : 5
Format                         : PGS
Muxing mode                    : zlib
Codec ID                       : S_HDMV/PGS
Codec ID/Info                  : Picture based subtitle format used on BDs/HD-DVDs
Duration                       : 2 h 11 min
Bit rate                       : 39.8 kb/s
Count of elements              : 4310
Stream size                    : 37.4 MiB (4%)
Title                          : GOPI SAHI
Language                       : English
Default                        : No
Forced                         : No

Text #3
ID                             : 6
Format                         : PGS
Muxing mode                    : zlib
Codec ID                       : S_HDMV/PGS
Codec ID/Info                  : Picture based subtitle format used on BDs/HD-DVDs
Duration                       : 2 h 8 min
Bit rate                       : 821 b/s
Count of elements              : 96
Stream size                    : 771 KiB (0%)
Title                          : GOPI SAHI
Language                       : Tamil
Default                        : No
Forced                         : No

Text #4
ID                             : 7
Format                         : PGS
Muxing mode                    : zlib
Codec ID                       : S_HDMV/PGS
Codec ID/Info                  : Picture based subtitle format used on BDs/HD-DVDs
Duration                       : 2 h 8 min
Bit rate                       : 629 b/s
Count of elements              : 98
Stream size                    : 591 KiB (0%)
Title                          : GOPI SAHI
Language                       : Telugu
Default                        : No
Forced                         : No

Menu
00:00:00.000                   : :Chapter 1
00:08:18.790                   : :Chapter 2
00:15:11.285                   : :Chapter 3
00:25:22.396                   : :Chapter 4
00:31:57.624                   : :Chapter 5
00:39:00.255                   : :Chapter 6
00:50:07.713                   : :Chapter 7
01:01:28.810                   : :Chapter 8
01:08:51.502                   : :Chapter 9
01:16:40.471                   : :Chapter 10
01:24:29.356                   : :Chapter 11
01:34:00.677                   : :Chapter 12
01:43:01.175                   : :Chapter 13
01:52:53.850                   : :Chapter 14
02:00:44.654                   : :Chapter 15

 



 MAGNET

TORRENT


MULTIUP

ANONFILES

BAYFILES

DWONLOAD AUTO START IN 20 SEC WAIT

DWONLOAD AUTO START IN 20 SEC WAIT

GDRIVE

CLOUDRU

MEDIAFIRE

ONLINE 720P


ONLINE 720P 2