School Of Rock 2003 x264 720p Esub NetFLix Dual Audio Hindi English GOPI SAHI

School of Rock (2003)

The School of Rock (original title)
PG-13 | | Comedy, Music | 3 October 2003 (USA) 
 
After being kicked out of his rock band, Dewey Finn becomes a substitute teacher of an uptight elementary private school, only to try and turn his class into a rock band.
EN

Director:

Richard Linklater

Writer:

Mike White
 
7.1/10
264,085
Directed byRichard Linklater
Produced byScott Rudin
Written byMike White
StarringJack Black
Joan Cusack
Mike White
Sarah Silverman
Music byCraig Wedren
CinematographyRogier Stoffers
Edited bySandra Adair
Production
company
Scott Rudin Productions
Distributed byParamount Pictures
Release date
  • October 3, 2003
Running time
109 minutes[1]
CountryUnited States
Germany[2]
LanguageEnglish
Budget$35 million
Box office$131.3 million[3]



School Of Rock 2003 x264 720p Esub NetFLix Dual Audio Hindi English GOPI SAHI


Format                         : Matroska
Format version                 : Version 4
File size                      : 859 MiB
Duration                       : 1 h 49 min
Overall bit rate               : 1 092 kb/s
Movie name                     : School Of Rock 2003 GOPI SAHI
Encoded date                   : UTC 2020-10-17 02:56:47

Video
ID                             : 1
Format                         : AVC
Format/Info                    : Advanced Video Codec
Format profile                 : [email protected]
Format settings                : CABAC / 5 Ref Frames
Format settings, CABAC         : Yes
Format settings, Reference fra : 5 frames
Codec ID                       : V_MPEG4/ISO/AVC
Duration                       : 1 h 49 min
Bit rate                       : 899 kb/s
Width                          : 1 280 pixels
Height                         : 720 pixels
Display aspect ratio           : 16:9
Frame rate mode                : Constant
Frame rate                     : 23.976 (24000/1001) FPS
Color space                    : YUV
Chroma subsampling             : 4:2:0
Bit depth                      : 8 bits
Scan type                      : Progressive
Bits/(Pixel*Frame)             : 0.041
Stream size                    : 706 MiB (82%)
Title                          : GOPI SAHI
Writing library                : x264 core 157 r2935 545de2f

Audio #1
ID                             : 2
Format                         : AAC LC
Format/Info                    : Advanced Audio Codec Low Complexity
Codec ID                       : A_AAC-2
Duration                       : 1 h 49 min
Bit rate                       : 96.0 kb/s
Channel(s)                     : 2 channels
Channel layout                 : L R
Sampling rate                  : 48.0 kHz
Frame rate                     : 46.875 FPS (1024 SPF)
Compression mode               : Lossy
Delay relative to video        : -21 ms
Stream size                    : 75.6 MiB (9%)
Title                          : GOPI SAHI
Language                       : Hindi
Default                        : Yes
Forced                         : No

Audio #2
ID                             : 3
Format                         : AAC LC
Format/Info                    : Advanced Audio Codec Low Complexity
Codec ID                       : A_AAC-2
Duration                       : 1 h 49 min
Bit rate                       : 96.0 kb/s
Channel(s)                     : 2 channels
Channel layout                 : L R
Sampling rate                  : 48.0 kHz
Frame rate                     : 46.875 FPS (1024 SPF)
Compression mode               : Lossy
Delay relative to video        : -21 ms
Stream size                    : 75.2 MiB (9%)
Title                          : GOPI SAHI
Language                       : English
Default                        : No
Forced                         : No

Text
ID                             : 4
Format                         : UTF-8
Codec ID                       : S_TEXT/UTF8
Codec ID/Info                  : UTF-8 Plain Text
Duration                       : 1 h 49 min
Bit rate                       : 89 b/s
Count of elements              : 2511
Stream size                    : 71.5 KiB (0%)
Title                          : GOPI SAHI
Language                       : English
Default                        : Yes
Forced                         : No


 

MAGNET

TORRENT

MULTIUP

ANONFILES

BAYFILES

DWONLOAD AUTO START IN 20 SEC WAIT

DWONLOAD AUTO START IN 20 SEC WAIT

GDRIVE

CLOUDRU

MEDIAFIRE

DOSYA

USAUPLOAD

ONLINE 720P

ONLINE 720P 2