Psycho 1960 Uncut 60th Anniv. x264 720p Esub BluRay Dual Audio English Hindi GOPI SAHI

Psycho (1960)

 
A Phoenix secretary embezzles $40,000 from her employer's client, goes on the run, and checks into a remote motel run by a young man under the domination of his mother.
EN

Director:

Alfred Hitchcock

Writers:

Joseph Stefano (screenplay by), Robert Bloch (based on the novel by)
 
8.5/10
592,166

 

Directed byAlfred Hitchcock
Produced byAlfred Hitchcock
Screenplay byJoseph Stefano
Based onPsycho
by Robert Bloch
Starring
Music byBernard Herrmann
CinematographyJohn L. Russell
Edited byGeorge Tomasini
Production
company
Shamley Productions
Distributed byParamount Pictures[N 1]
Release date
[3][4]
Running time
109 minutes
CountryUnited States[5]
LanguageEnglish
Budget$806,947[6]
Box office$50 million[7]

 


 

Psycho 1960 Uncut 60th Anniv. x264 720p Esub BluRay Dual Audio English Hindi GOPI SAHI


Format                         : Matroska
Format version                 : Version 4
File size                      : 869 MiB
Duration                       : 1 h 49 min
Overall bit rate               : 1 114 kb/s
Movie name                     : Psycho 1960 Uncut 60th Anniv. GOPI SAHI
Encoded date                   : UTC 2020-10-19 14:51:41

Video
ID                             : 1
Format                         : AVC
Format/Info                    : Advanced Video Codec
Format profile                 : [email protected]
Format settings                : CABAC / 5 Ref Frames
Format settings, CABAC         : Yes
Format settings, Reference fra : 5 frames
Codec ID                       : V_MPEG4/ISO/AVC
Duration                       : 1 h 49 min
Bit rate                       : 899 kb/s
Width                          : 1 280 pixels
Height                         : 694 pixels
Display aspect ratio           : 1.85:1
Frame rate mode                : Constant
Frame rate                     : 23.976 (24000/1001) FPS
Color space                    : YUV
Chroma subsampling             : 4:2:0
Bit depth                      : 8 bits
Scan type                      : Progressive
Bits/(Pixel*Frame)             : 0.042
Stream size                    : 701 MiB (81%)
Title                          : GOPI SAHI
Writing library                : x264 core 157 r2935 545de2f

Audio #1
ID                             : 2
Format                         : AAC LC
Format/Info                    : Advanced Audio Codec Low Complexity
Codec ID                       : A_AAC-2
Duration                       : 1 h 49 min
Bit rate                       : 96.0 kb/s
Channel(s)                     : 2 channels
Channel layout                 : L R
Sampling rate                  : 48.0 kHz
Frame rate                     : 46.875 FPS (1024 SPF)
Compression mode               : Lossy
Delay relative to video        : -21 ms
Stream size                    : 75.0 MiB (9%)
Title                          : GOPI SAHI
Language                       : Hindi
Default                        : Yes
Forced                         : No

Audio #2
ID                             : 3
Format                         : AAC LC
Format/Info                    : Advanced Audio Codec Low Complexity
Codec ID                       : A_AAC-2
Duration                       : 1 h 49 min
Bit rate                       : 96.0 kb/s
Channel(s)                     : 2 channels
Channel layout                 : L R
Sampling rate                  : 48.0 kHz
Frame rate                     : 46.875 FPS (1024 SPF)
Compression mode               : Lossy
Delay relative to video        : -21 ms
Stream size                    : 75.1 MiB (9%)
Title                          : GOPI SAHI
Language                       : English
Default                        : No
Forced                         : No

Text #1
ID                             : 4
Format                         : PGS
Muxing mode                    : zlib
Codec ID                       : S_HDMV/PGS
Codec ID/Info                  : Picture based subtitle format used on BDs/HD-DVDs
Duration                       : 1 h 46 min
Bit rate                       : 26.9 kb/s
Count of elements              : 2098
Stream size                    : 20.5 MiB (2%)
Title                          : GOPI SAHI
Language                       : Hindi
Default                        : No
Forced                         : No

Text #2
ID                             : 5
Format                         : PGS
Muxing mode                    : zlib
Codec ID                       : S_HDMV/PGS
Codec ID/Info                  : Picture based subtitle format used on BDs/HD-DVDs
Duration                       : 1 h 45 min
Bit rate                       : 37.6 kb/s
Count of elements              : 2430
Stream size                    : 28.4 MiB (3%)
Title                          : GOPI SAHI
Language                       : English
Default                        : No
Forced                         : No

Menu
00:00:00.000                   : :Chapter 1
00:02:20.849                   : :Chapter 2
00:07:00.170                   : :Chapter 3
00:11:06.791                   : :Chapter 4
00:14:00.923                   : :Chapter 5
00:17:54.198                   : :Chapter 6
00:26:33.050                   : :Chapter 7
00:34:51.006                   : :Chapter 8
00:38:35.271                   : :Chapter 9
00:46:43.676                   : :Chapter 10
00:49:37.266                   : :Chapter 11
00:58:51.862                   : :Chapter 12
01:00:26.373                   : :Chapter 13
01:04:11.139                   : :Chapter 14
01:06:41.706                   : :Chapter 15
01:12:35.518                   : :Chapter 16
01:16:41.972                   : :Chapter 17
01:17:53.169                   : :Chapter 18
01:20:29.825                   : :Chapter 19
01:23:48.315                   : :Chapter 20
01:27:05.929                   : :Chapter 21
01:32:19.242                   : :Chapter 22
01:35:21.883                   : :Chapter 23
01:41:03.516                   : :Chapter 24
01:42:09.081                   : :Chapter 25
01:47:29.652                   : :Chapter 26



MAGNET

TORRENT

MULTIUP

ANONFILES

BAYFILES

DWONLOAD AUTO START IN 20 SEC WAIT


DWONLOAD AUTO START IN 20 SEC WAIT

GDRIVE

CLOUDRU

MEDIAFIRE


DOSYA


USAUPLOAD

ONLINE 720P

ONLINE 720P 2