Pride & Prejudice 2005 x264 720p Esub BluRay Dual Audio English Hindi GOPI SAHI

Pride & Prejudice (2005)

 
Sparks fly when spirited Elizabeth Bennet meets single, rich, and proud Mr. Darcy. But Mr. Darcy reluctantly finds himself falling in love with a woman beneath his class. Can each overcome their own pride and prejudice?
EN

Director:

Joe Wright

Writers:

Deborah Moggach (screenplay by), Jane Austen (based on the novel by)
 
7.8/10
251,906
Directed byJoe Wright
Produced by
Screenplay byDeborah Moggach
Based onPride and Prejudice
by Jane Austen
Starring
Music byDario Marianelli
CinematographyRoman Osin
Edited byPaul Tothill
Production
company
Distributed by
Release date
‹See TfM›
  • 11 September 2005 (TIFF)
  • 16 September 2005 (United Kingdom)
  • 11 November 2005 (United States)
  • 18 January 2006 (France)
Running time
127 minutes[1]
Country
  • United Kingdom
  • United States
  • France
LanguageEnglish
Budget$28 million[2]
Box office$121.6 million[3]

 

Pride & Prejudice 2005 x264 720p Esub BluRay Dual Audio English Hindi GOPI SAHI

Format                         : Matroska
Format version                 : Version 4
File size                      : 1 003 MiB
Duration                       : 2 h 6 min
Overall bit rate               : 1 108 kb/s
Movie name                     : Pride & Prejudice 2005 GOPI SAHI
Encoded date                   : UTC 2020-10-28 10:19:05

Video
ID                             : 1
Format                         : AVC
Format/Info                    : Advanced Video Codec
Format profile                 : [email protected]
Format settings                : CABAC / 5 Ref Frames
Format settings, CABAC         : Yes
Format settings, Reference fra : 5 frames
Codec ID                       : V_MPEG4/ISO/AVC
Duration                       : 2 h 6 min
Bit rate                       : 899 kb/s
Width                          : 1 280 pixels
Height                         : 548 pixels
Display aspect ratio           : 2.35:1
Frame rate mode                : Constant
Frame rate                     : 23.976 (24000/1001) FPS
Color space                    : YUV
Chroma subsampling             : 4:2:0
Bit depth                      : 8 bits
Scan type                      : Progressive
Bits/(Pixel*Frame)             : 0.053
Stream size                    : 814 MiB (81%)
Title                          : GOPI SAHI
Writing library                : x264 core 157 r2935 545de2f

Audio #1
ID                             : 2
Format                         : AAC LC
Format/Info                    : Advanced Audio Codec Low Complexity
Codec ID                       : A_AAC-2
Duration                       : 2 h 6 min
Bit rate                       : 96.0 kb/s
Channel(s)                     : 2 channels
Channel layout                 : L R
Sampling rate                  : 48.0 kHz
Frame rate                     : 46.875 FPS (1024 SPF)
Compression mode               : Lossy
Delay relative to video        : 1 s 446 ms
Stream size                    : 87.2 MiB (9%)
Title                          : GOPI SAHI
Language                       : Hindi
Default                        : Yes
Forced                         : No

Audio #2
ID                             : 3
Format                         : AAC LC
Format/Info                    : Advanced Audio Codec Low Complexity
Codec ID                       : A_AAC-2
Duration                       : 2 h 6 min
Bit rate                       : 96.0 kb/s
Channel(s)                     : 2 channels
Channel layout                 : L R
Sampling rate                  : 48.0 kHz
Frame rate                     : 46.875 FPS (1024 SPF)
Compression mode               : Lossy
Delay relative to video        : -21 ms
Stream size                    : 87.2 MiB (9%)
Title                          : GOPI SAHI
Language                       : English
Default                        : No
Forced                         : No

Text #1
ID                             : 4
Format                         : PGS
Muxing mode                    : zlib
Codec ID                       : S_HDMV/PGS
Codec ID/Info                  : Picture based subtitle format used on BDs/HD-DVDs
Duration                       : 2 h 5 min
Bit rate                       : 22 b/s
Count of elements              : 4
Stream size                    : 21.0 KiB (0%)
Title                          : GOPI SAHI
Language                       : Hindi
Default                        : Yes
Forced                         : Yes

Text #2
ID                             : 5
Format                         : PGS
Muxing mode                    : zlib
Codec ID                       : S_HDMV/PGS
Codec ID/Info                  : Picture based subtitle format used on BDs/HD-DVDs
Duration                       : 1 h 59 min
Bit rate                       : 47.4 kb/s
Count of elements              : 3554
Stream size                    : 40.5 MiB (4%)
Title                          : GOPI SAHI
Language                       : English
Default                        : No
Forced                         : No

Menu
00:00:00.000                   : :Chapter 1
00:07:19.606                   : :Chapter 2
00:16:10.511                   : :Chapter 3
00:23:32.286                   : :Chapter 4
00:31:09.284                   : :Chapter 5
00:38:58.878                   : :Chapter 6
00:45:50.039                   : :Chapter 7
00:54:40.068                   : :Chapter 8
01:02:25.158                   : :Chapter 9
01:12:51.450                   : :Chapter 10
01:18:31.373                   : :Chapter 11
01:25:08.979                   : :Chapter 12
01:33:41.658                   : :Chapter 13
01:43:22.988                   : :Chapter 14
01:49:13.338                   : :Chapter 15
02:00:15.834                   : :Chapter 16


 

MAGNET

TORRENT

 
MULTIUP

DWONLOAD AUTO START IN 20 SEC WAIT

DWONLOAD AUTO START IN 20 SEC WAIT

GDRIVE

CLOUDRU

DOSYA

USAUPLOAD

MEDIAFIRE

ONLINE 720P