Pinocchio 1940 x264 720p Esub BluRay Dual Audio English Hindi GOPI SAHI

 

Pinocchio (1940)

 
A living puppet, with the help of a cricket as his conscience, must prove himself worthy to become a real boy.
EN

Writers:

Carlo Collodi (from the story by) (as Collodi), Ted Sears (story adaptation) | 6 more credits »
 
7.4/10

128,834

Directed bySupervising DirectorsSequence Directors
Produced byWalt Disney
Story by
Based onThe Adventures of Pinocchio
by Carlo Collodi
Starring
Music by
Production
company
Distributed byRKO Radio Pictures
Release date
‹See TfM›
Running time
88 minutes
CountryUnited States
LanguageEnglish
Budget$2.6 million[3]
Box office$164 million

 

 

Pinocchio 1940 x264 720p Esub BluRay Dual Audio English Hindi GOPI SAHI


Format                         : Matroska
Format version                 : Version 4
File size                      : 687 MiB
Duration                       : 1 h 27 min
Overall bit rate               : 1 095 kb/s
Movie name                     : Pinocchio 1940 GOPI SAHI
Encoded date                   : UTC 2020-10-27 10:45:39

Video
ID                             : 1
Format                         : AVC
Format/Info                    : Advanced Video Codec
Format profile                 : [email protected]
Format settings                : CABAC / 5 Ref Frames
Format settings, CABAC         : Yes
Format settings, Reference fra : 5 frames
Codec ID                       : V_MPEG4/ISO/AVC
Duration                       : 1 h 27 min
Bit rate                       : 899 kb/s
Width                          : 958 pixels
Height                         : 720 pixels
Display aspect ratio           : 4:3
Frame rate mode                : Constant
Frame rate                     : 23.976 (24000/1001) FPS
Color space                    : YUV
Chroma subsampling             : 4:2:0
Bit depth                      : 8 bits
Scan type                      : Progressive
Bits/(Pixel*Frame)             : 0.054
Stream size                    : 564 MiB (82%)
Title                          : GOPI SAHI
Writing library                : x264 core 157 r2935 545de2f

Audio #1
ID                             : 2
Format                         : AAC LC
Format/Info                    : Advanced Audio Codec Low Complexity
Codec ID                       : A_AAC-2
Duration                       : 1 h 27 min
Bit rate                       : 96.0 kb/s
Channel(s)                     : 2 channels
Channel layout                 : L R
Sampling rate                  : 48.0 kHz
Frame rate                     : 46.875 FPS (1024 SPF)
Compression mode               : Lossy
Delay relative to video        : -146 ms
Stream size                    : 60.4 MiB (9%)
Title                          : GOPI SAHI
Language                       : Hindi
Default                        : Yes
Forced                         : No

Audio #2
ID                             : 3
Format                         : AAC LC
Format/Info                    : Advanced Audio Codec Low Complexity
Codec ID                       : A_AAC-2
Duration                       : 1 h 27 min
Bit rate                       : 96.0 kb/s
Channel(s)                     : 2 channels
Channel layout                 : L R
Sampling rate                  : 48.0 kHz
Frame rate                     : 46.875 FPS (1024 SPF)
Compression mode               : Lossy
Delay relative to video        : -146 ms
Stream size                    : 60.5 MiB (9%)
Title                          : GOPI SAHI
Language                       : English
Default                        : No
Forced                         : No

Text
ID                             : 4
Format                         : UTF-8
Codec ID                       : S_TEXT/UTF8
Codec ID/Info                  : UTF-8 Plain Text
Duration                       : 1 h 27 min
Bit rate                       : 52 b/s
Count of elements              : 1048
Stream size                    : 33.3 KiB (0%)
Title                          : GOPI SAHI
Language                       : English
Default                        : Yes
Forced                         : No


 

MAGNET

TORRENT

MULTIUP

DWONLOAD AUTO START IN 20 SEC WAIT

DWONLOAD AUTO START IN 20 SEC WAIT

GDRIVE

CLOUDRU

MEDIAFIRE

 DOSYA

USAUPLOAD

ONLINE 720P