Paddington 2014 x264 720p Dual Audio English Hindi GOPI SAHI

Paddington (2014)

 
A young Peruvian bear travels to London in search of a home. Finding himself lost and alone at Paddington Station, he meets the kindly Brown family, who offer him a temporary haven.
EN

Director:

Paul King

Writers:

Paul King, Hamish McColl (screen story by) | 2 more credits »
 
7.2/10
95,666
Directed byPaul King
Produced byDavid Heyman
Screenplay byPaul King
Story by
Based onPaddington Bear
by Michael Bond
Starring
Music byNick Urata
CinematographyErik Wilson
Edited byMark Everson
Production
company
Distributed byStudioCanal[3]
Release date
  • 28 November 2014
Running time
95 minutes[3]
Country
  • United Kingdom
  • France[4]
LanguageEnglish
Budget
  • €38.5 million
  • $65 million (gross)[5]
  • $54.7 million (net)[5]
Box office$282.8 million[6]

 


Paddington 2014 GOPI SAHI

Format                         : Matroska
Format version                 : Version 4
File size                      : 745 MiB
Duration                       : 1 h 35 min
Overall bit rate               : 1 095 kb/s
Movie name                     : Paddington 2014 GOPI SAHI
Encoded date                   : UTC 2020-10-17 10:41:46

Video
ID                             : 1
Format                         : AVC
Format/Info                    : Advanced Video Codec
Format profile                 : [email protected]
Format settings                : CABAC / 5 Ref Frames
Format settings, CABAC         : Yes
Format settings, Reference fra : 5 frames
Codec ID                       : V_MPEG4/ISO/AVC
Duration                       : 1 h 35 min
Bit rate                       : 899 kb/s
Width                          : 1 280 pixels
Height                         : 536 pixels
Display aspect ratio           : 2.40:1
Frame rate mode                : Constant
Frame rate                     : 23.976 (24000/1001) FPS
Color space                    : YUV
Chroma subsampling             : 4:2:0
Bit depth                      : 8 bits
Scan type                      : Progressive
Bits/(Pixel*Frame)             : 0.055
Stream size                    : 612 MiB (82%)
Title                          : GOPI SAHI
Writing library                : x264 core 157 r2935 545de2f

Audio #1
ID                             : 2
Format                         : AAC LC
Format/Info                    : Advanced Audio Codec Low Complexity
Codec ID                       : A_AAC-2
Duration                       : 1 h 35 min
Bit rate                       : 96.0 kb/s
Channel(s)                     : 2 channels
Channel layout                 : L R
Sampling rate                  : 48.0 kHz
Frame rate                     : 46.875 FPS (1024 SPF)
Compression mode               : Lossy
Delay relative to video        : -21 ms
Stream size                    : 65.7 MiB (9%)
Title                          : GOPI SAHI
Language                       : Hindi
Default                        : Yes
Forced                         : No

Audio #2
ID                             : 3
Format                         : AAC LC
Format/Info                    : Advanced Audio Codec Low Complexity
Codec ID                       : A_AAC-2
Duration                       : 1 h 35 min
Bit rate                       : 96.0 kb/s
Channel(s)                     : 2 channels
Channel layout                 : L R
Sampling rate                  : 48.0 kHz
Frame rate                     : 46.875 FPS (1024 SPF)
Compression mode               : Lossy
Delay relative to video        : -21 ms
Stream size                    : 65.6 MiB (9%)
Title                          : GOPI SAHI
Language                       : English
Default                        : No
Forced                         : No

Text
ID                             : 4
Format                         : UTF-8
Codec ID                       : S_TEXT/UTF8
Codec ID/Info                  : UTF-8 Plain Text
Duration                       : 1 h 30 min
Bit rate                       : 67 b/s
Count of elements              : 1243
Stream size                    : 44.6 KiB (0%)
Title                          : GOPI SAHI
Language                       : English
Default                        : Yes
Forced                         : No





 MAGNET

TORRENT

MULTIUP

ANONFILES

BAYFILES

DWONLOAD AUTO START IN 20 SEC WAIT

DWONLOAD AUTO START IN 20 SEC WAIT

GDRIVE

CLOUDRU

MEDIAFIRE

DOSYA

USAUPLOAD

ONLINE 720P

ONLINE 720P 2