One Day 2011 x264 720p Esub BluRay Dual Audio English Hindi GOPI SAHI

One Day (2011)

PG-13 | | Drama, Romance | 19 August 2011 (USA)
 
After spending the night together on the night of their college graduation Dexter and Emma are shown each year on the same date to see where they are in their lives. They are sometimes together, sometimes not, on that day.
EN

Director:

Lone Scherfig

Writers:

David Nicholls (screenplay), David Nicholls (book)
 
7.0/10
136,426
 
 
Directed byLone Scherfig
Produced byNina Jacobson
Screenplay byDavid Nicholls
Based onOne Day
by David Nicholls
Starring
Music byRachel Portman
CinematographyBenoît Delhomme[1]
Edited byBarney Pilling[1]
Production
companies
Distributed by
Release date
  • 8 August 2011 (New York City premiere)
  • 19 August 2011 (United States)
  • 24 August 2011 (United Kingdom)
Running time
108 minutes
Country
  • United States
  • United Kingdom
LanguageEnglish
Budget$15 million[2]
Box office$56.7 million[3]
 
One Day 2011 x264 720p Esub BluRay Dual Audio English Hindi GOPI SAHI

Format                         : Matroska
Format version                 : Version 4
File size                      : 869 MiB
Duration                       : 1 h 47 min
Overall bit rate               : 1 131 kb/s
Movie name                     : One Day 2011 GOPI SAHI
Encoded date                   : UTC 2020-08-22 03:08:59
Writing application            : mkvmerge v46.0.0 ('No Deeper Escape') 32-bit
Writing library                : libebml v1.3.10 + libmatroska v1.5.2
Attachments                    : Hammer Logo.jpg

Video
ID                             : 1
Format                         : AVC
Format/Info                    : Advanced Video Codec
Format profile                 : [email protected]
Format settings                : CABAC / 5 Ref Frames
Format settings, CABAC         : Yes
Format settings, Reference fra : 5 frames
Codec ID                       : V_MPEG4/ISO/AVC
Duration                       : 1 h 47 min
Bit rate                       : 899 kb/s
Width                          : 1 280 pixels
Height                         : 544 pixels
Display aspect ratio           : 2.35:1
Frame rate mode                : Constant
Frame rate                     : 23.976 (24000/1001) FPS
Color space                    : YUV
Chroma subsampling             : 4:2:0
Bit depth                      : 8 bits
Scan type                      : Progressive
Bits/(Pixel*Frame)             : 0.054
Stream size                    : 691 MiB (79%)
Title                          : GOPI SAHI
Writing library                : x264 core 157 r2935 545de2f

Audio #1
ID                             : 2
Format                         : AAC LC
Format/Info                    : Advanced Audio Codec Low Complexity
Codec ID                       : A_AAC-2
Duration                       : 1 h 47 min
Bit rate                       : 96.0 kb/s
Channel(s)                     : 2 channels
Channel layout                 : L R
Sampling rate                  : 48.0 kHz
Frame rate                     : 46.875 FPS (1024 SPF)
Compression mode               : Lossy
Delay relative to video        : 1 s 29 ms
Stream size                    : 73.9 MiB (9%)
Title                          : GOPI SAHI
Language                       : Hindi
Default                        : Yes
Forced                         : No

Audio #2
ID                             : 3
Format                         : AAC LC
Format/Info                    : Advanced Audio Codec Low Complexity
Codec ID                       : A_AAC-2
Duration                       : 1 h 47 min
Bit rate                       : 96.0 kb/s
Channel(s)                     : 2 channels
Channel layout                 : L R
Sampling rate                  : 48.0 kHz
Frame rate                     : 46.875 FPS (1024 SPF)
Compression mode               : Lossy
Delay relative to video        : 1 s 29 ms
Stream size                    : 73.9 MiB (9%)
Title                          : GOPI SAHI
Language                       : English
Default                        : No
Forced                         : No

Text #1
ID                             : 4
Format                         : PGS
Muxing mode                    : zlib
Codec ID                       : S_HDMV/PGS
Codec ID/Info                  : Picture based subtitle format used on BDs/HD-DVDs
Duration                       : 1 h 45 min
Bit rate                       : 29.4 kb/s
Count of elements              : 2464
Stream size                    : 22.3 MiB (3%)
Title                          : GOPI SAHI
Language                       : Hindi
Default                        : Yes
Forced                         : No

Text #2
ID                             : 5
Format                         : PGS
Muxing mode                    : zlib
Codec ID                       : S_HDMV/PGS
Codec ID/Info                  : Picture based subtitle format used on BDs/HD-DVDs
Duration                       : 1 h 38 min
Bit rate                       : 36.6 kb/s
Count of elements              : 5336
Stream size                    : 25.9 MiB (3%)
Title                          : GOPI SAHI
Language                       : English
Default                        : No
Forced                         : No




MAGNET

TORRENT

MULTIUP

ANONFILES

BAYFILES

DWONLOAD AUTO START IN 20 SEC WAIT

DWONLOAD AUTO START IN 20 SEC WAIT

GDRIVE

CLOUDRU

MEDIAFIRE

DOSYA

USAUPLOAD


ONLINE 720P

ONLINE 720P 2