Mercury Man 2006 x264 720p Esub BluRay Dual Audio Hindi Thai GOPI SAHI

Mercury Man (2006)



After a brush with a strange substance, an average fireman transforms into something far greater than himself--the Mercury Man. Endowed with fantastic superpowers, he will now use his abilities to help conquer the forces of evil.
EN

Director:

Bhandit Thongdee

4.2/10
373
Directed byBhandit Thongdee
Produced byPrachya Pinkaew
Sukanya Vongstthapat
StarringWasan Khantaau
Metinee Kingpayom
Arnon Saisangchan
Jinvipa Kheawkunya
Parinya Kiatbusaba
Darunee Khrittabhunyalai
CinematographySittipong Kongtong
Edited bySudtipon Tubtim
Distributed bySahamongkol Film International
Release date
  • August 10, 2006
Running time
101 minutes
CountryThailand
LanguageThai
English
Budget60 million baht[1]




Mercury Man 2006 x264 720p Esub BluRay Dual Audio Hindi Thai GOPI SAHI

Format                         : Matroska
Format version                 : Version 4
File size                      : 836 MiB
Duration                       : 1 h 45 min
Overall bit rate               : 1 107 kb/s
Movie name                     : Mercury Man 2006 GOPI SAHI
Encoded date                   : UTC 2020-10-06 12:58:54

Video
ID                             : 1
Format                         : AVC
Format/Info                    : Advanced Video Codec
Format profile                 : [email protected]
Format settings                : CABAC / 5 Ref Frames
Format settings, CABAC         : Yes
Format settings, Reference fra : 5 frames
Codec ID                       : V_MPEG4/ISO/AVC
Duration                       : 1 h 45 min
Bit rate                       : 899 kb/s
Width                          : 1 280 pixels
Height                         : 722 pixels
Display aspect ratio           : 16:9
Frame rate mode                : Constant
Frame rate                     : 23.976 (24000/1001) FPS
Color space                    : YUV
Chroma subsampling             : 4:2:0
Bit depth                      : 8 bits
Scan type                      : Progressive
Bits/(Pixel*Frame)             : 0.041
Stream size                    : 679 MiB (81%)
Title                          : GOPI SAHI
Writing library                : x264 core 157 r2935 545de2f

Audio #1
ID                             : 2
Format                         : AAC LC
Format/Info                    : Advanced Audio Codec Low Complexity
Codec ID                       : A_AAC-2
Duration                       : 1 h 45 min
Bit rate                       : 96.0 kb/s
Channel(s)                     : 2 channels
Channel layout                 : L R
Sampling rate                  : 48.0 kHz
Frame rate                     : 46.875 FPS (1024 SPF)
Compression mode               : Lossy
Delay relative to video        : -21 ms
Stream size                    : 72.9 MiB (9%)
Title                          : GOPI SAHI
Language                       : Hindi
Default                        : Yes
Forced                         : No

Audio #2
ID                             : 3
Format                         : AAC LC
Format/Info                    : Advanced Audio Codec Low Complexity
Codec ID                       : A_AAC-2
Duration                       : 1 h 45 min
Bit rate                       : 96.0 kb/s
Channel(s)                     : 2 channels
Channel layout                 : L R
Sampling rate                  : 48.0 kHz
Frame rate                     : 46.875 FPS (1024 SPF)
Compression mode               : Lossy
Delay relative to video        : -21 ms
Stream size                    : 72.9 MiB (9%)
Title                          : GOPI SAHI
Language                       : Thai
Default                        : No
Forced                         : No

Text
ID                             : 4
Format                         : PGS
Muxing mode                    : zlib
Codec ID                       : S_HDMV/PGS
Codec ID/Info                  : Picture based subtitle format used on BDs/HD-DVDs
Duration                       : 1 h 41 min
Bit rate                       : 33.3 kb/s
Count of elements              : 1934
Stream size                    : 24.3 MiB (3%)
Title                          : GOPI SAHI
Language                       : English
Default                        : Yes
Forced                         : Yes

Menu
00:00:00.000                   : :Chapter 1
00:16:50.426                   : :Chapter 2
00:38:05.492                   : :Chapter 3
01:00:02.557                   : :Chapter 4
01:17:19.510                   : :Chapter 5
01:31:30.193                   : :Chapter 6