Lara Croft The Cradle of Life 2003 x264 720p Esub BluRay Dual Audio English Hindi GOPI SAHI

Lara Croft Tomb Raider: The Cradle of Life (2003)


 
Adventurer Lara Croft goes on a quest to save the mythical Pandora's Box, before an evil scientist finds it, and recruits a former Marine turned mercenary to assist her.
EN

Director:

Jan de Bont

Writers:

Dean Georgaris (screenplay), Steven E. de Souza (story) | 1 more credit »

5.6/10
128,563

Directed byJan de Bont
Produced by
Screenplay byDean Georgaris
Story by
Based onTomb Raider
by Core Design
Starring
Music byAlan Silvestri
CinematographyDavid Tattersall
Edited byMichael Kahn
Production
company
Distributed by
Release date
  • July 21, 2003 (premiere)
  • July 25, 2003 (United States)
  • August 14, 2003 (Germany)
  • August 22, 2003 (United Kingdom)
  • September 20, 2003 (Japan)
Running time
110 minutes[1]
Country
  • Germany
  • Japan
  • United Kingdom
  • United States[2]
LanguageEnglish
Mandarin
Budget$95 million[1]
Box office$160.1 million[1]


Lara Croft The Cradle of Life 2003 GOPI SAHI.

Format                         : Matroska
Format version                 : Version 4
File size                      : 930 MiB
Duration                       : 1 h 57 min
Overall bit rate               : 1 108 kb/s
Movie name                     : Lara Croft The Cradle of Life 2003 GOPI SAHI
Encoded date                   : UTC 2020-10-01 00:22:34

Video
ID                             : 1
Format                         : AVC
Format/Info                    : Advanced Video Codec
Format profile                 : [email protected]
Format settings                : CABAC / 5 Ref Frames
Format settings, CABAC         : Yes
Format settings, Reference fra : 5 frames
Codec ID                       : V_MPEG4/ISO/AVC
Duration                       : 1 h 57 min
Bit rate                       : 899 kb/s
Width                          : 1 280 pixels
Height                         : 544 pixels
Display aspect ratio           : 2.35:1
Frame rate mode                : Constant
Frame rate                     : 23.976 (24000/1001) FPS
Color space                    : YUV
Chroma subsampling             : 4:2:0
Bit depth                      : 8 bits
Scan type                      : Progressive
Bits/(Pixel*Frame)             : 0.054
Stream size                    : 754 MiB (81%)
Title                          : GOPI SAHI
Writing library                : x264 core 157 r2935 545de2f

Audio #1
ID                             : 2
Format                         : AAC LC
Format/Info                    : Advanced Audio Codec Low Complexity
Codec ID                       : A_AAC-2
Duration                       : 1 h 57 min
Bit rate                       : 96.0 kb/s
Channel(s)                     : 2 channels
Channel layout                 : L R
Sampling rate                  : 48.0 kHz
Frame rate                     : 46.875 FPS (1024 SPF)
Compression mode               : Lossy
Delay relative to video        : -21 ms
Stream size                    : 81.0 MiB (9%)
Title                          : GOPI SAHI
Language                       : Hindi
Default                        : Yes
Forced                         : No

Audio #2
ID                             : 3
Format                         : AAC LC
Format/Info                    : Advanced Audio Codec Low Complexity
Codec ID                       : A_AAC-2
Duration                       : 1 h 57 min
Bit rate                       : 96.0 kb/s
Channel(s)                     : 2 channels
Channel layout                 : L R
Sampling rate                  : 48.0 kHz
Frame rate                     : 46.875 FPS (1024 SPF)
Compression mode               : Lossy
Delay relative to video        : -21 ms
Stream size                    : 81.0 MiB (9%)
Title                          : GOPI SAHI
Language                       : English
Default                        : No
Forced                         : No

Text
ID                             : 4
Format                         : PGS
Muxing mode                    : zlib
Codec ID                       : S_HDMV/PGS
Codec ID/Info                  : Picture based subtitle format used on BDs/HD-DVDs
Duration                       : 1 h 44 min
Bit rate                       : 34.1 kb/s
Count of elements              : 1614
Stream size                    : 25.5 MiB (3%)
Title                          : GOPI SAHI
Language                       : English
Default                        : No
Forced                         : No