Kidnap 2017 x264 720p Esub BluRay Dual Audio English Hindi GOPI SAHI

Kidnap (2017)

 
 
A mother stops at nothing to recover her kidnapped son.
EN

Director:

Luis Prieto

Writer:

Knate Lee
 
5.9/10
33,197
Directed byLuis Prieto
Produced by
Screenplay byKnate Lee
Starring
Music byFederico Jusid
CinematographyFlavio Martinez Labiano
Edited byAvi Youabian
Production
company
Distributed byAviron Pictures
Release date
Running time
95 minutes
CountryUnited States
LanguageEnglish
Budget$21 million[1]
Box office$34.8 million[2]

 

 

 

Kidnap 2017 x264 720p Esub BluRay Dual Audio English Hindi GOPI SAH


Format                         : Matroska
Format version                 : Version 4
File size                      : 743 MiB
Duration                       : 1 h 34 min
Overall bit rate               : 1 094 kb/s
Movie name                     : Kidnap 2017 GOPI SAHI
Encoded date                   : UTC 2020-10-25 03:01:31

Video
ID                             : 1
Format                         : AVC
Format/Info                    : Advanced Video Codec
Format profile                 : [email protected]
Format settings                : CABAC / 5 Ref Frames
Format settings, CABAC         : Yes
Format settings, Reference fra : 5 frames
Codec ID                       : V_MPEG4/ISO/AVC
Duration                       : 1 h 34 min
Bit rate                       : 899 kb/s
Width                          : 1 280 pixels
Height                         : 534 pixels
Display aspect ratio           : 2.40:1
Frame rate mode                : Constant
Frame rate                     : 23.976 (24000/1001) FPS
Color space                    : YUV
Chroma subsampling             : 4:2:0
Bit depth                      : 8 bits
Scan type                      : Progressive
Bits/(Pixel*Frame)             : 0.055
Stream size                    : 610 MiB (82%)
Title                          : GOPI SAHI
Writing library                : x264 core 157 r2935 545de2f

Audio #1
ID                             : 2
Format                         : AAC LC
Format/Info                    : Advanced Audio Codec Low Complexity
Codec ID                       : A_AAC-2
Duration                       : 1 h 34 min
Bit rate                       : 96.0 kb/s
Channel(s)                     : 2 channels
Channel layout                 : L R
Sampling rate                  : 48.0 kHz
Frame rate                     : 46.875 FPS (1024 SPF)
Compression mode               : Lossy
Delay relative to video        : -21 ms
Stream size                    : 65.4 MiB (9%)
Title                          : GOPI SAHI
Language                       : Hindi
Default                        : Yes
Forced                         : No

Audio #2
ID                             : 3
Format                         : AAC LC
Format/Info                    : Advanced Audio Codec Low Complexity
Codec ID                       : A_AAC-2
Duration                       : 1 h 34 min
Bit rate                       : 96.0 kb/s
Channel(s)                     : 2 channels
Channel layout                 : L R
Sampling rate                  : 48.0 kHz
Frame rate                     : 46.875 FPS (1024 SPF)
Compression mode               : Lossy
Delay relative to video        : -21 ms
Stream size                    : 65.4 MiB (9%)
Title                          : GOPI SAHI
Language                       : English
Default                        : No
Forced                         : No

Text
ID                             : 4
Format                         : UTF-8
Codec ID                       : S_TEXT/UTF8
Codec ID/Info                  : UTF-8 Plain Text
Duration                       : 1 h 27 min
Bit rate                       : 30 b/s
Count of elements              : 633
Stream size                    : 19.5 KiB (0%)
Title                          : GOPI SAHI
Language                       : English
Default                        : Yes
Forced                         : No



 MAGNET

TORRENT


MULTIUP

DWONLOAD AUTO START IN 20 SEC WAIT

DWONLOAD AUTO START IN 20 SEC WAIT


GDRIVE


CLOUDRU

MEDIAFIRE

DOSYA

USAUPLOAD


ONLINE 720P