Justice League 2017 x264 720p Esub BluRay Dual Audio English Hindi GOPI SAHI

 

Justice League (2017)

 
 
 
Fueled by his restored faith in humanity and inspired by Superman's selfless act, Bruce Wayne enlists the help of his new-found ally, Diana Prince, to face an even greater enemy.
EN

Director:

Zack Snyder

Writers:

Jerry Siegel (Superman created by), Joe Shuster (Superman created by) | 9 more credits »
 
Directed byZack Snyder[N 1]
Produced by
Screenplay by
Story by
  • Chris Terrio
  • Zack Snyder
Based onJustice League
by Gardner Fox
Starring
Music byDanny Elfman
CinematographyFabian Wagner
Edited by
Production
companies
Distributed byWarner Bros. Pictures
Release date
  • October 26, 2017 (Beijing)
  • November 17, 2017 (United States)
Running time
120 minutes[2]
CountryUnited States
LanguageEnglish
Budget$300 million[3]
Box office$657.9 million[4]
6.3/10
374,573
 
 

Justice League 2017 x264 720p Esub BluRay Dual Audio English Hindi GOPI SAHI

Format                         : Matroska
Format version                 : Version 4
File size                      : 949 MiB
Duration                       : 2 h 0 min
Overall bit rate               : 1 105 kb/s
Movie name                     : Justice League 2017 GOPI SAHI
Encoded date                   : UTC 2020-10-20 07:50:59

Video
ID                             : 1
Format                         : AVC
Format/Info                    : Advanced Video Codec
Format profile                 : [email protected]
Format settings                : CABAC / 5 Ref Frames
Format settings, CABAC         : Yes
Format settings, Reference fra : 5 frames
Codec ID                       : V_MPEG4/ISO/AVC
Duration                       : 2 h 0 min
Bit rate                       : 899 kb/s
Width                          : 1 280 pixels
Height                         : 720 pixels
Display aspect ratio           : 16:9
Frame rate mode                : Constant
Frame rate                     : 23.976 (24000/1001) FPS
Color space                    : YUV
Chroma subsampling             : 4:2:0
Bit depth                      : 8 bits
Scan type                      : Progressive
Bits/(Pixel*Frame)             : 0.041
Stream size                    : 772 MiB (81%)
Title                          : GOPI SAHI
Writing library                : x264 core 157 r2935 545de2f

Audio #1
ID                             : 2
Format                         : AAC LC
Format/Info                    : Advanced Audio Codec Low Complexity
Codec ID                       : A_AAC-2
Duration                       : 2 h 0 min
Bit rate                       : 96.0 kb/s
Channel(s)                     : 2 channels
Channel layout                 : L R
Sampling rate                  : 48.0 kHz
Frame rate                     : 46.875 FPS (1024 SPF)
Compression mode               : Lossy
Delay relative to video        : -21 ms
Stream size                    : 82.7 MiB (9%)
Title                          : GOPI SAHI
Language                       : Hindi
Default                        : Yes
Forced                         : No

Audio #2
ID                             : 3
Format                         : AAC LC
Format/Info                    : Advanced Audio Codec Low Complexity
Codec ID                       : A_AAC-2
Duration                       : 2 h 0 min
Bit rate                       : 96.0 kb/s
Channel(s)                     : 2 channels
Channel layout                 : L R
Sampling rate                  : 48.0 kHz
Frame rate                     : 46.875 FPS (1024 SPF)
Compression mode               : Lossy
Delay relative to video        : -21 ms
Stream size                    : 82.8 MiB (9%)
Title                          : GOPI SAHI
Language                       : English
Default                        : No
Forced                         : No

Text #1
ID                             : 4
Format                         : PGS
Muxing mode                    : zlib
Codec ID                       : S_HDMV/PGS
Codec ID/Info                  : Picture based subtitle format used on BDs/HD-DVDs
Duration                       : 1 h 57 min
Bit rate                       : 674 b/s
Count of elements              : 62
Stream size                    : 583 KiB (0%)
Title                          : GOPI SAHI
Language                       : Hindi
Default                        : Yes
Forced                         : Yes

Text #2
ID                             : 5
Format                         : PGS
Muxing mode                    : zlib
Codec ID                       : S_HDMV/PGS
Codec ID/Info                  : Picture based subtitle format used on BDs/HD-DVDs
Duration                       : 1 h 59 min
Bit rate                       : 30.8 kb/s
Count of elements              : 3014
Stream size                    : 26.2 MiB (3%)
Title                          : GOPI SAHI
Language                       : English
Default                        : No
Forced                         : No

Text #3
ID                             : 6
Format                         : PGS
Muxing mode                    : zlib
Codec ID                       : S_HDMV/PGS
Codec ID/Info                  : Picture based subtitle format used on BDs/HD-DVDs
Duration                       : 1 h 56 min
Bit rate                       : 677 b/s
Count of elements              : 60
Stream size                    : 577 KiB (0%)
Title                          : GOPI SAHI
Language                       : Tamil
Default                        : No
Forced                         : No

Text #4
ID                             : 7
Format                         : PGS
Muxing mode                    : zlib
Codec ID                       : S_HDMV/PGS
Codec ID/Info                  : Picture based subtitle format used on BDs/HD-DVDs
Duration                       : 1 h 57 min
Bit rate                       : 505 b/s
Count of elements              : 62
Stream size                    : 436 KiB (0%)
Title                          : GOPI SAHI
Language                       : Telugu
Default                        : No
Forced                         : No

Menu
00:00:00.000                   : :Chapter 1
00:10:56.239                   : :Chapter 2
00:19:16.489                   : :Chapter 3
00:30:41.673                   : :Chapter 4
00:40:19.667                   : :Chapter 5
00:49:56.535                   : :Chapter 6
01:01:26.892                   : :Chapter 7
01:09:41.552                   : :Chapter 8
01:19:18.587                   : :Chapter 9
01:30:34.512                   : :Chapter 10
01:40:33.569                   : :Chapter 11
01:48:43.058                   : :Chapter 12



 MAGNET

TORRENT

MULTIUP

ANONFILES

BAYFILES


DWONLOAD AUTO START IN 20 SEC WAIT

DWONLOAD AUTO START IN 20 SEC WAIT

GDRIVE

CLOUDRU

MEDIAFIRE

DOSYA

USAUPLOAD

ONLINE 720P

ONLINE 720P 2