Ginny Weds Sunny 2020 x264 720p Esub NetFLix Dual Audio Hindi English GOPI SAHI

Ginny Weds Sunny (2020)

 
The film follows headstrong Ginny who meets Sunny for an arranged marriage, but turns him down, and then shows how Sunny teams up with Ginny's mother to win her love.
EN

Director:

Puneet Khanna
 
6.2/10
335
Directed byPuneet Khanna
Produced byVinod Bachchan
Written byNavjot Gulati
Sumit Arora
StarringYami Gautam
Vikrant Massey
Music byScore:
Prasad Sashte
Songs:
Payal Dev
Gaurav Chatterji
Jaan Nissar Lone
CinematographyNuthan Nagaraj
Edited bySandeep Sethy
Production
company
Distributed byNetflix
Release date
  • 9 October 2020
Running time
125 minutes
CountryIndia
LanguageHindi

 

Ginny Weds Sunny 2020 x264 720p Esub NetFLix Dual Audio Hindi English GOPI SAHI

Format                         : Matroska
Format version                 : Version 4
File size                      : 985 MiB
Duration                       : 2 h 5 min
Overall bit rate               : 1 094 kb/s
Movie name                     : Ginny Weds Sunny 2020 GOPI SAHI
Encoded date                   : UTC 2020-10-10 03:00:34

Video
ID                             : 1
Format                         : AVC
Format/Info                    : Advanced Video Codec
Format profile                 : [email protected]
Format settings                : CABAC / 5 Ref Frames
Format settings, CABAC         : Yes
Format settings, Reference fra : 5 frames
Codec ID                       : V_MPEG4/ISO/AVC
Duration                       : 2 h 5 min
Bit rate                       : 899 kb/s
Width                          : 1 280 pixels
Height                         : 536 pixels
Display aspect ratio           : 2.40:1
Frame rate mode                : Constant
Frame rate                     : 24.000 FPS
Color space                    : YUV
Chroma subsampling             : 4:2:0
Bit depth                      : 8 bits
Scan type                      : Progressive
Bits/(Pixel*Frame)             : 0.055
Stream size                    : 809 MiB (82%)
Title                          : GOPI SAHI
Writing library                : x264 core 157 r2935 545de2f

Audio #1
ID                             : 2
Format                         : AAC LC
Format/Info                    : Advanced Audio Codec Low Complexity
Codec ID                       : A_AAC-2
Duration                       : 2 h 5 min
Bit rate                       : 96.0 kb/s
Channel(s)                     : 2 channels
Channel layout                 : L R
Sampling rate                  : 48.0 kHz
Frame rate                     : 46.875 FPS (1024 SPF)
Compression mode               : Lossy
Delay relative to video        : -21 ms
Stream size                    : 86.7 MiB (9%)
Title                          : GOPI SAHI
Language                       : Hindi
Default                        : Yes
Forced                         : No

Audio #2
ID                             : 3
Format                         : AAC LC
Format/Info                    : Advanced Audio Codec Low Complexity
Codec ID                       : A_AAC-2
Duration                       : 2 h 5 min
Bit rate                       : 96.0 kb/s
Channel(s)                     : 2 channels
Channel layout                 : L R
Sampling rate                  : 48.0 kHz
Frame rate                     : 46.875 FPS (1024 SPF)
Compression mode               : Lossy
Delay relative to video        : -21 ms
Stream size                    : 86.6 MiB (9%)
Title                          : GOPI SAHI
Language                       : English
Default                        : No
Forced                         : No

Text
ID                             : 4
Format                         : UTF-8
Codec ID                       : S_TEXT/UTF8
Codec ID/Info                  : UTF-8 Plain Text
Duration                       : 2 h 1 min
Bit rate                       : 59 b/s
Count of elements              : 1755
Stream size                    : 52.9 KiB (0%)
Title                          : GOPI SAHI
Language                       : English
Default                        : Yes
Forced                         : No




MAGNET

TORRENT

MULTIUP

ANONFILES

BAYFILES

DWONLOAD AUTO START IN 20 SEC WAIT

DWONLOAD AUTO START IN 20 SEC WAIT

GDRIVE

CLOUDRU


MEDIAFIRE


DOSYA


USAUPLOAD


ONLINE 720P

ONLINE 720P 2