Genevieve 1953 x264 720p BluRay Dual Audio English Hindi GOPI SAHI

 

Genevieve (1953)

Approved | | Comedy | 15 February 1954 (USA)

 

It's time for the annual London to Brighton antique car rally, and Alan McKim and Ambrose Claverhouse are not going to let their friendship stop them from trying to humiliate each other. ... See full summary »
EN

Director:

Henry Cornelius

Writer:

William Rose (story and screenplay)
 
7.1/10
2,745
 
Directed byHenry Cornelius
Produced byHenry Cornelius
Written byWilliam Rose
Starring
Music byLarry Adler
CinematographyChristopher Challis
Edited byClive Donner
Production
company
Distributed by
Release date
‹See TfM›
  • 28 May 1953 (UK)
  • 16 February 1954 (US)
Running time
86 minutes
CountryUnited Kingdom
LanguageEnglish
Budget£115,000[1]

Genevieve 1953 x264 720p BluRay Dual Audio English Hindi GOPI SAHI


Format                         : Matroska
Format version                 : Version 4
File size                      : 648 MiB
Duration                       : 1 h 22 min
Overall bit rate               : 1 093 kb/s
Movie name                     : Genevieve 1953 GOPI SAHI
Encoded date                   : UTC 2020-10-30 12:11:01

Video
ID                             : 1
Format                         : AVC
Format/Info                    : Advanced Video Codec
Format profile                 : [email protected]
Format settings                : CABAC / 5 Ref Frames
Format settings, CABAC         : Yes
Format settings, Reference fra : 5 frames
Codec ID                       : V_MPEG4/ISO/AVC
Duration                       : 1 h 22 min
Bit rate                       : 899 kb/s
Width                          : 992 pixels
Height                         : 720 pixels
Display aspect ratio           : 1.378
Frame rate mode                : Constant
Frame rate                     : 25.000 FPS
Color space                    : YUV
Chroma subsampling             : 4:2:0
Bit depth                      : 8 bits
Scan type                      : Progressive
Bits/(Pixel*Frame)             : 0.050
Stream size                    : 533 MiB (82%)
Title                          : GOPI SAHI
Writing library                : x264 core 157 r2935 545de2f

Audio #1
ID                             : 2
Format                         : AAC LC
Format/Info                    : Advanced Audio Codec Low Complexity
Codec ID                       : A_AAC-2
Duration                       : 1 h 22 min
Bit rate                       : 96.0 kb/s
Channel(s)                     : 2 channels
Channel layout                 : L R
Sampling rate                  : 48.0 kHz
Frame rate                     : 46.875 FPS (1024 SPF)
Compression mode               : Lossy
Delay relative to video        : -21 ms
Stream size                    : 56.5 MiB (9%)
Title                          : GOPI SAHI
Language                       : Hindi
Default                        : Yes
Forced                         : No

Audio #2
ID                             : 3
Format                         : AAC LC
Format/Info                    : Advanced Audio Codec Low Complexity
Codec ID                       : A_AAC-2
Duration                       : 1 h 22 min
Bit rate                       : 96.0 kb/s
Channel(s)                     : 2 channels
Channel layout                 : L R
Sampling rate                  : 48.0 kHz
Frame rate                     : 46.875 FPS (1024 SPF)
Compression mode               : Lossy
Delay relative to video        : -21 ms
Stream size                    : 57.0 MiB (9%)
Title                          : GOPI SAHI
Language                       : English
Default                        : No
Forced                         : No



 MAGNET

TORRENT

DWONLOAD AUTO START IN 20 SEC WAIT

DWONLOAD AUTO START IN 20 SEC WAIT

GDRIVE

CLOUDRU

MEDIAFIRE


ONLINE 720P