Flight 2012 x264 720p Esub BluRay Dual Audio English Hindi GOPI SAHI

Flight (2012)

 
 
An airline pilot saves almost all his passengers on his malfunctioning airliner which eventually crashed, but an investigation into the accident reveals something troubling.
EN

Director:

Robert Zemeckis

Writer:

John Gatins
 
7.3/10
321,069
Directed byRobert Zemeckis
Produced by
Written byJohn Gatins
Starring
Music byAlan Silvestri
CinematographyDon Burgess
Edited byJeremiah O'Driscoll
Production
company
Distributed byParamount Pictures
Release date
Running time
138 minutes[1]
CountryUnited States
LanguageEnglish
Budget$31 million[2]
Box office$161.8 million[3]

 


Flight 2012 x264 720p Esub BluRay Dual Audio English Hindi GOPI SAHI


Format                         : Matroska
Format version                 : Version 4
File size                      : 1.08 GiB
Duration                       : 2 h 19 min
Overall bit rate               : 1 110 kb/s
Movie name                     : Flight 2012 GOPI SAHI
Encoded date                   : UTC 2020-10-09 00:12:33
Writing application            : mkvmerge v46.0.0 ('No Deeper Escape') 32-bit
Writing library                : libebml v1.3.10 + libmatroska v1.5.2

Video
ID                             : 1
Format                         : AVC
Format/Info                    : Advanced Video Codec
Format profile                 : [email protected]
Format settings                : CABAC / 5 Ref Frames
Format settings, CABAC         : Yes
Format settings, Reference fra : 5 frames
Codec ID                       : V_MPEG4/ISO/AVC
Duration                       : 2 h 18 min
Bit rate                       : 899 kb/s
Width                          : 1 280 pixels
Height                         : 534 pixels
Display aspect ratio           : 2.40:1
Frame rate mode                : Constant
Frame rate                     : 23.976 (24000/1001) FPS
Color space                    : YUV
Chroma subsampling             : 4:2:0
Bit depth                      : 8 bits
Scan type                      : Progressive
Bits/(Pixel*Frame)             : 0.055
Stream size                    : 891 MiB (80%)
Title                          : GOPI SAHI
Writing library                : x264 core 157 r2935 545de2f

Audio #1
ID                             : 2
Format                         : AAC LC
Format/Info                    : Advanced Audio Codec Low Complexity
Codec ID                       : A_AAC-2
Duration                       : 2 h 19 min
Bit rate                       : 96.0 kb/s
Channel(s)                     : 2 channels
Channel layout                 : L R
Sampling rate                  : 48.0 kHz
Frame rate                     : 46.875 FPS (1024 SPF)
Compression mode               : Lossy
Stream size                    : 95.3 MiB (9%)
Title                          : GOPI SAHI
Language                       : Hindi
Default                        : Yes
Forced                         : No

Audio #2
ID                             : 3
Format                         : AAC LC
Format/Info                    : Advanced Audio Codec Low Complexity
Codec ID                       : A_AAC-2
Duration                       : 2 h 18 min
Bit rate                       : 96.0 kb/s
Channel(s)                     : 2 channels
Channel layout                 : L R
Sampling rate                  : 48.0 kHz
Frame rate                     : 46.875 FPS (1024 SPF)
Compression mode               : Lossy
Delay relative to video        : -21 ms
Stream size                    : 95.3 MiB (9%)
Title                          : GOPI SAHI
Language                       : English
Default                        : No
Forced                         : No

Text #1
ID                             : 4
Format                         : PGS
Muxing mode                    : zlib
Codec ID                       : S_HDMV/PGS
Codec ID/Info                  : Picture based subtitle format used on BDs/HD-DVDs
Duration                       : 2 h 17 min
Bit rate                       : 30.0 kb/s
Count of elements              : 4180
Stream size                    : 29.5 MiB (3%)
Title                          : GOPI SAHI
Language                       : Hindi
Default                        : No
Forced                         : No

Text #2
ID                             : 5
Format                         : PGS
Muxing mode                    : zlib
Codec ID                       : S_HDMV/PGS
Codec ID/Info                  : Picture based subtitle format used on BDs/HD-DVDs
Duration                       : 2 h 10 min
Bit rate                       : 44.9 kb/s
Count of elements              : 4164
Stream size                    : 42.0 MiB (4%)
Title                          : GOPI SAHI
Language                       : English
Default                        : No
Forced                         : No

Menu
00:00:00.000                   : :Chapter 1
00:09:32.572                   : :Chapter 2
00:17:06.984                   : :Chapter 3
00:26:16.867                   : :Chapter 4
00:34:40.203                   : :Chapter 5
00:45:42.615                   : :Chapter 6
00:52:01.493                   : :Chapter 7
01:00:46.768                   : :Chapter 8
01:10:10.081                   : :Chapter 9
01:19:31.100                   : :Chapter 10
01:26:54.668                   : :Chapter 11
01:37:05.236                   : :Chapter 12
01:48:54.153                   : :Chapter 13
01:55:20.122                   : :Chapter 14
02:11:55.032                   : :Chapter 15



 

MAGNET

TORRENT

MULTIUP

ANONFILES

BAYFILES

DWONLOAD AUTO START IN 20 SEC WAIT

DWONLOAD AUTO START IN 20 SEC WAIT

GDRIVE


CLOUDRU

MEDIAFIRE


ONLINE 720P

ONLINE 720P 2