Failure to Launch 2006 x264 720p Esub BluRay Dual Audio English Hindi GOPI SAHI

 

Failure to Launch (2006)

 
PG-13 | | Comedy, Romance | 10 March 2006 (USA) 
 
A thirty-something is still living with his parents until they hire an interventionist to help him graduate out of the house. That's when the fun begins.
EN

Director:

Tom Dey
 
5.6/10
73,190
Directed byTom Dey
Produced byScott Rudin
Scott Aversano
Written byTom J. Astle
Matt Ember
StarringMatthew McConaughey
Sarah Jessica Parker
Zooey Deschanel
Justin Bartha
Bradley Cooper
Terry Bradshaw
Kathy Bates
Music byRolfe Kent
CinematographyClaudio Miranda
Edited bySteven Rosenblum
Production
company
Distributed byParamount Pictures
Release date
  • March 10, 2006
Running time
97 minutes
LanguageEnglish
Budget$50 million
Box office$130.2 million

Failure to Launch 2006 x264 720p Esub BluRay Dual Audio English Hindi GOPI SAHI


Format                         : Matroska
Format version                 : Version 4
File size                      : 777 MiB
Duration                       : 1 h 37 min
Overall bit rate               : 1 120 kb/s
Movie name                     : Failure to Launch 2006 GOPI SAHI
Encoded date                   : UTC 2020-10-08 15:14:405.2

Video
ID                             : 1
Format                         : AVC
Format/Info                    : Advanced Video Codec
Format profile                 : [email protected]
Format settings                : CABAC / 5 Ref Frames
Format settings, CABAC         : Yes
Format settings, Reference fra : 5 frames
Codec ID                       : V_MPEG4/ISO/AVC
Duration                       : 1 h 36 min
Bit rate                       : 899 kb/s
Width                          : 1 280 pixels
Height                         : 546 pixels
Display aspect ratio           : 2.35:1
Frame rate mode                : Constant
Frame rate                     : 23.976 (24000/1001) FPS
Color space                    : YUV
Chroma subsampling             : 4:2:0
Bit depth                      : 8 bits
Scan type                      : Progressive
Bits/(Pixel*Frame)             : 0.054
Stream size                    : 619 MiB (80%)
Title                          : GOPI SAHI
Writing library                : x264 core 157 r2935 545de2f

Audio #1
ID                             : 2
Format                         : AAC LC
Format/Info                    : Advanced Audio Codec Low Complexity
Codec ID                       : A_AAC-2
Duration                       : 1 h 37 min
Bit rate                       : 96.0 kb/s
Channel(s)                     : 2 channels
Channel layout                 : L R
Sampling rate                  : 48.0 kHz
Frame rate                     : 46.875 FPS (1024 SPF)
Compression mode               : Lossy
Delay relative to video        : 1 s 391 ms
Stream size                    : 66.4 MiB (9%)
Title                          : GOPI SAHI
Language                       : Hindi
Default                        : Yes
Forced                         : No

Audio #2
ID                             : 3
Format                         : AAC LC
Format/Info                    : Advanced Audio Codec Low Complexity
Codec ID                       : A_AAC-2
Duration                       : 1 h 36 min
Bit rate                       : 96.0 kb/s
Channel(s)                     : 2 channels
Channel layout                 : L R
Sampling rate                  : 48.0 kHz
Frame rate                     : 46.875 FPS (1024 SPF)
Compression mode               : Lossy
Delay relative to video        : -21 ms
Stream size                    : 66.3 MiB (9%)
Title                          : GOPI SAHI
Language                       : English
Default                        : No
Forced                         : No

Text #1
ID                             : 4
Format                         : PGS
Muxing mode                    : zlib
Codec ID                       : S_HDMV/PGS
Codec ID/Info                  : Picture based subtitle format used on BDs/HD-DVDs
Duration                       : 1 h 35 min
Bit rate                       : 33.0 kb/s
Count of elements              : 3428
Stream size                    : 22.6 MiB (3%)
Title                          : GOPI SAHI
Language                       : Hindi
Default                        : No
Forced                         : No

Text #2
ID                             : 5
Format                         : PGS
Muxing mode                    : zlib
Codec ID                       : S_HDMV/PGS
Codec ID/Info                  : Picture based subtitle format used on BDs/HD-DVDs
Duration                       : 1 h 31 min
Bit rate                       : 51.6 kb/s
Count of elements              : 3410
Stream size                    : 33.6 MiB (4%)
Title                          : GOPI SAHI
Language                       : English
Default                        : No
Forced                         : No

Menu
00:00:00.000                   : :Celebrating Our Lifestyle
00:07:20.273                   : :The Right Girl
00:14:26.949                   : :Nothing Is Doomed
00:20:19.093                   : :Dinner and a Show
00:26:22.581                   : :Cruising Through the Steps
00:35:20.910                   : :Bringing Her Home
00:43:00.411                   : :Uncharted Waters
00:51:28.335                   : :Truths Revealed
00:59:26.146                   : :I'm Out
01:07:56.739                   : :At Odds With the Natural World
01:17:31.814                   : :Finding a Solution
01:22:37.703                   : :Reality T.V.
01:28:14.289                   : :Jibe Ho



MAGNET

TORRENT

MULTIUP

ANONFILES

BAYFILES

DWONLOAD AUTO START IN 20 SEC WAIT

DWONLOAD AUTO START IN 20 SEC WAIT

GDRIVE


CLOUDRU

MEDIAFIRE


DOSYA

USAUPLOAD

ONLINE 720P

ONLINE 720P 2