Cinderella 1950 x264 720p Esub BluRay Dual Audio English Hindi GOPI SAHI

 

Cinderella (1950)

 
When Cinderella's cruel stepmother prevents her from attending the Royal Ball, she gets some unexpected help from the lovable mice Gus and Jaq, and from her Fairy Godmother.
EN

Writers:

Charles Perrault (from the original classic by), Bill Peet (story) (as William Peed) | 7 more credits »
 
7.3/10

143,431

Directed by
Produced byWalt Disney
Story by
Based onCinderella
by Charles Perrault
Starring
Narrated byBetty Lou Gerson
Music by
Edited byDonald Halliday
Production
company
Distributed byRKO Radio Pictures
Release date
‹See TfM›
  • February 15, 1950 (Boston)[3]
  • March 4, 1950 (United States)[3]
Running time
74 minutes[4]
CountryUnited States
LanguageEnglish
Budget$2.9 million[5]
Box office$263.6 million[5]

 

 

Cinderella 1950 x264 720p Esub BluRay Dual Audio English Hindi GOPI SAHI


Format                         : Matroska
Format version                 : Version 4
File size                      : 634 MiB
Duration                       : 1 h 14 min
Overall bit rate               : 1 190 kb/s
Movie name                     : Cinderella 1950 GOPI SAHI
Encoded date                   : UTC 2020-10-30 12:10:28

Video
ID                             : 1
Format                         : AVC
Format/Info                    : Advanced Video Codec
Format profile                 : [email protected]
Format settings                : CABAC / 5 Ref Frames
Format settings, CABAC         : Yes
Format settings, Reference fra : 5 frames
Codec ID                       : V_MPEG4/ISO/AVC
Duration                       : 1 h 14 min
Bit rate                       : 899 kb/s
Width                          : 1 280 pixels
Height                         : 952 pixels
Display aspect ratio           : 4:3
Frame rate mode                : Constant
Frame rate                     : 23.976 (24000/1001) FPS
Color space                    : YUV
Chroma subsampling             : 4:2:0
Bit depth                      : 8 bits
Scan type                      : Progressive
Bits/(Pixel*Frame)             : 0.031
Stream size                    : 479 MiB (76%)
Title                          : GOPI SAHI
Writing library                : x264 core 157 r2935 545de2f

Audio #1
ID                             : 2
Format                         : AAC LC
Format/Info                    : Advanced Audio Codec Low Complexity
Codec ID                       : A_AAC-2
Duration                       : 1 h 14 min
Bit rate                       : 96.0 kb/s
Channel(s)                     : 2 channels
Channel layout                 : L R
Sampling rate                  : 48.0 kHz
Frame rate                     : 46.875 FPS (1024 SPF)
Compression mode               : Lossy
Delay relative to video        : 895 ms
Stream size                    : 50.9 MiB (8%)
Title                          : GOPI SAHI
Language                       : Hindi
Default                        : Yes
Forced                         : No

Audio #2
ID                             : 3
Format                         : AAC LC
Format/Info                    : Advanced Audio Codec Low Complexity
Codec ID                       : A_AAC-2
Duration                       : 1 h 14 min
Bit rate                       : 96.0 kb/s
Channel(s)                     : 2 channels
Channel layout                 : L R
Sampling rate                  : 48.0 kHz
Frame rate                     : 46.875 FPS (1024 SPF)
Compression mode               : Lossy
Delay relative to video        : -104 ms
Stream size                    : 51.0 MiB (8%)
Title                          : GOPI SAHI
Language                       : English
Default                        : No
Forced                         : No

Audio #3
ID                             : 4
Format                         : AAC LC
Format/Info                    : Advanced Audio Codec Low Complexity
Codec ID                       : A_AAC-2
Duration                       : 1 h 14 min
Bit rate                       : 96.0 kb/s
Channel(s)                     : 2 channels
Channel layout                 : L R
Sampling rate                  : 48.0 kHz
Frame rate                     : 46.875 FPS (1024 SPF)
Compression mode               : Lossy
Delay relative to video        : 895 ms
Stream size                    : 51.1 MiB (8%)
Title                          : GOPI SAHI
Language                       : Tamil
Default                        : No
Forced                         : No

Text
ID                             : 5
Format                         : UTF-8
Codec ID                       : S_TEXT/UTF8
Codec ID/Info                  : UTF-8 Plain Text
Duration                       : 1 h 13 min
Bit rate                       : 49 b/s
Count of elements              : 968
Stream size                    : 26.9 KiB (0%)
Title                          : GOPI SAHI
Language                       : English
Default                        : Yes
Forced                         : No




 

MAGNET

TORRENT

DWONLOAD AUTO START IN 20 SEC WAIT

DWONLOAD AUTO START IN 20 SEC WAIT

GDRIVE

CLOUDRU

MEDIAFIRE

ONLINE 720P