Body of Lies 2008 x264 720p Esub BluRay Dual Audio English Hindi GOPI SAHI

Body of Lies (2008)



A CIA agent on the ground in Jordan hunts down a powerful terrorist leader while being caught between the unclear intentions of his American supervisors and Jordan Intelligence.
EN

Director:

Ridley Scott

Writers:

William Monahan (screenplay), David Ignatius (novel)

7.1/10
210,765

Directed byRidley Scott
Produced by
Screenplay byWilliam Monahan
Based onBody of Lies
by David Ignatius
Starring
Music byMarc Streitenfeld
CinematographyAlexander Witt
Edited byPietro Scalia
Production
company
Distributed byWarner Bros. Pictures
Release date
  • October 10, 2008
Running time
128 minutes
CountryUnited States
LanguageEnglish
Budget$67.5–70 million[1][2]
Box office$118.6 million[2]


Body of Lies 2008 x264 720p Esub BluRay Dual Audio English Hindi GOPI SAHI

Format                         : Matroska
Format version                 : Version 4
File size                      : 1 020 MiB
Duration                       : 2 h 8 min
Overall bit rate               : 1 111 kb/s
Movie name                     : Body of Lies 2008 GOPI SAHI
Encoded date                   : UTC 2020-10-06 10:27:13

Video
ID                             : 1
Format                         : AVC
Format/Info                    : Advanced Video Codec
Format profile                 : [email protected]
Format settings                : CABAC / 5 Ref Frames
Format settings, CABAC         : Yes
Format settings, Reference fra : 5 frames
Codec ID                       : V_MPEG4/ISO/AVC
Duration                       : 2 h 8 min
Bit rate                       : 899 kb/s
Width                          : 1 280 pixels
Height                         : 534 pixels
Display aspect ratio           : 2.40:1
Frame rate mode                : Constant
Frame rate                     : 23.976 (24000/1001) FPS
Color space                    : YUV
Chroma subsampling             : 4:2:0
Bit depth                      : 8 bits
Scan type                      : Progressive
Bits/(Pixel*Frame)             : 0.055
Stream size                    : 825 MiB (81%)
Title                          : GOPI SAHI
Writing library                : x264 core 157 r2935 545de2f

Audio #1
ID                             : 2
Format                         : AAC LC
Format/Info                    : Advanced Audio Codec Low Complexity
Codec ID                       : A_AAC-2
Duration                       : 2 h 8 min
Bit rate                       : 96.0 kb/s
Channel(s)                     : 2 channels
Channel layout                 : L R
Sampling rate                  : 48.0 kHz
Frame rate                     : 46.875 FPS (1024 SPF)
Compression mode               : Lossy
Delay relative to video        : -21 ms
Stream size                    : 88.5 MiB (9%)
Title                          : GOPI SAHI
Language                       : Hindi
Default                        : Yes
Forced                         : No

Audio #2
ID                             : 3
Format                         : AAC LC
Format/Info                    : Advanced Audio Codec Low Complexity
Codec ID                       : A_AAC-2
Duration                       : 2 h 8 min
Bit rate                       : 96.0 kb/s
Channel(s)                     : 2 channels
Channel layout                 : L R
Sampling rate                  : 48.0 kHz
Frame rate                     : 46.875 FPS (1024 SPF)
Compression mode               : Lossy
Delay relative to video        : -21 ms
Stream size                    : 88.4 MiB (9%)
Title                          : GOPI SAHI
Language                       : English
Default                        : No
Forced                         : No

Text
ID                             : 4
Format                         : PGS
Muxing mode                    : zlib
Codec ID                       : S_HDMV/PGS
Codec ID/Info                  : Picture based subtitle format used on BDs/HD-DVDs
Duration                       : 2 h 7 min
Bit rate                       : 37.5 kb/s
Count of elements              : 3460
Stream size                    : 34.2 MiB (3%)
Title                          : GOPI SAHI
Language                       : English
Default                        : Yes
Forced                         : Yes

Menu
00:00:00.000                   : :Chapter 1
00:03:08.397                   : :Chapter 2
00:06:53.997                   : :Chapter 3
00:12:33.127                   : :Chapter 4
00:16:11.053                   : :Chapter 5
00:18:41.662                   : :Chapter 6
00:26:49.274                   : :Chapter 7
00:30:44.718                   : :Chapter 8
00:34:10.590                   : :Chapter 9
00:39:22.527                   : :Chapter 10
00:41:48.589                   : :Chapter 11
00:44:08.604                   : :Chapter 12
00:48:10.262                   : :Chapter 13
00:52:49.124                   : :Chapter 14
00:56:01.650                   : :Chapter 15
01:00:10.899                   : :Chapter 16
01:03:56.750                   : :Chapter 17
01:07:03.019                   : :Chapter 18
01:09:53.815                   : :Chapter 19
01:14:44.397                   : :Chapter 20
01:17:20.636                   : :Chapter 21
01:22:43.417                   : :Chapter 22
01:24:49.710                   : :Chapter 23
01:28:15.081                   : :Chapter 24
01:31:36.366                   : :Chapter 25
01:35:20.215                   : :Chapter 26
01:40:18.054                   : :Chapter 27
01:43:22.822                   : :Chapter 28
01:46:49.028                   : :Chapter 29
01:52:50.597                   : :Chapter 30
01:55:17.661                   : :Chapter 31
01:58:11.251                   : :Chapter 32
02:01:50.637                   : :Chapter 33