Blithe Spirit 1945 x264 720p BluRay Dual Audio English Hindi GOPI SAHI

Blithe Spirit (1945)

Not Rated | | Comedy, Fantasy | 14 May 1945 (UK)
 
 
A man and his second wife are haunted by the ghost of his first wife.
EN

Director:

David Lean

Writers:

David Lean (adapted for the screen by), Ronald Neame (adapted for the screen by) | 1 more credit »
 
7.1/10
5,506
Directed byDavid Lean
Produced byNoël Coward
Screenplay byDavid Lean
Ronald Neame
Anthony Havelock-Allan
Based onBlithe Spirit
1941 play
by Noël Coward
StarringRex Harrison
Constance Cummings
Kay Hammond
Margaret Rutherford
Music byRichard Addinsell
CinematographyRonald Neame
Edited byJack Harris[1]
Production
company
Distributed byGeneral Film Distributors (United Kingdom)
Release date
14 May 1945 (UK)
Running time
96 minutes
CountryUnited Kingdom
LanguageEnglish

 

Blithe Spirit 1945 x264 720p BluRay Dual Audio English Hindi GOPI SAHI


Format                         : Matroska
Format version                 : Version 4
File size                      : 753 MiB
Duration                       : 1 h 36 min
Overall bit rate               : 1 093 kb/s
Movie name                     : Blithe Spirit 1945 GOPI SAHI
Encoded date                   : UTC 2020-10-28 10:22:30

Video
ID                             : 1
Format                         : AVC
Format/Info                    : Advanced Video Codec
Format profile                 : [email protected]
Format settings                : CABAC / 5 Ref Frames
Format settings, CABAC         : Yes
Format settings, Reference fra : 5 frames
Codec ID                       : V_MPEG4/ISO/AVC
Duration                       : 1 h 36 min
Bit rate                       : 899 kb/s
Width                          : 1 278 pixels
Height                         : 928 pixels
Display aspect ratio           : 1.377
Frame rate mode                : Constant
Frame rate                     : 23.976 (24000/1001) FPS
Color space                    : YUV
Chroma subsampling             : 4:2:0
Bit depth                      : 8 bits
Scan type                      : Progressive
Bits/(Pixel*Frame)             : 0.032
Stream size                    : 619 MiB (82%)
Title                          : GOPI SAHI
Writing library                : x264 core 157 r2935 545de2f

Audio #1
ID                             : 2
Format                         : AAC LC
Format/Info                    : Advanced Audio Codec Low Complexity
Codec ID                       : A_AAC-2
Duration                       : 1 h 36 min
Bit rate                       : 96.0 kb/s
Channel(s)                     : 2 channels
Channel layout                 : L R
Sampling rate                  : 48.0 kHz
Frame rate                     : 46.875 FPS (1024 SPF)
Compression mode               : Lossy
Delay relative to video        : 12 ms
Stream size                    : 65.7 MiB (9%)
Title                          : GOPI SAHI
Language                       : Hindi
Default                        : Yes
Forced                         : No

Audio #2
ID                             : 3
Format                         : AAC LC
Format/Info                    : Advanced Audio Codec Low Complexity
Codec ID                       : A_AAC-2
Duration                       : 1 h 36 min
Bit rate                       : 96.0 kb/s
Channel(s)                     : 2 channels
Channel layout                 : L R
Sampling rate                  : 48.0 kHz
Frame rate                     : 46.875 FPS (1024 SPF)
Compression mode               : Lossy
Delay relative to video        : 10 ms
Stream size                    : 66.0 MiB (9%)
Title                          : GOPI SAHI
Language                       : English
Default                        : No
Forced                         : No



 MAGNET

TORRENT

MULTIUP

DWONLOAD AUTO START IN 20 SEC WAIT

DWONLOAD AUTO START IN 20 SEC WAIT

GDRIVE

CLOUDRU

DOSYA

USAUPLOAD

MEDIAFIRE

ONLINE 720P