Bambi 1942 x264 720p Esub BluRay Dual Audio English Hindi Italian GOPI SAHI

Bambi (1942)

 
The story of a young deer growing up in the forest.
EN

Directors:

James Algar, Samuel Armstrong (as Sam Armstrong) | 7 more credits »

Writers:

Felix Salten (from the story by), Perce Pearce (story direction) | 6 more credits »
 
7.3/10

129,243

 

Directed bySupervising director
David Hand
Sequence directors
James Algar
Samuel Armstrong
Graham Heid
Bill Roberts
Paul Satterfield
Norman Wright
Produced byWalt Disney
Story byStory direction
Perce Pearce
Story adaptation
Larry Morey
Story development
Vernon Stallings
Melvin Shaw
Carl Fallberg
Chuck Couch
Ralph Wright
Based onBambi, a Life in the Woods
by Felix Salten
Starringsee below
Music byFrank Churchill
Edward H. Plumb
Production
company
Distributed byRKO Radio Pictures
Release date
‹See TfM›
  • August 9, 1942 (World Premiere-London)
  • August 13, 1942 (Premiere-New York City)
  • August 21, 1942 (U.S.)[1]
Running time
70 minutes
CountryUnited States
LanguageEnglish
Budget$858,000[2]
Box office$267.4 million[3]

 

Bambi 1942 x264 720p Esub BluRay Dual Audio English Hindi Italian GOPI SAHI


Format                         : Matroska
Format version                 : Version 4
File size                      : 597 MiB
Duration                       : 1 h 9 min
Overall bit rate               : 1 196 kb/s
Movie name                     : Bambi 1942 GOPI SAHI
Encoded date                   : UTC 2020-10-27 10:44:57

Video
ID                             : 1
Format                         : AVC
Format/Info                    : Advanced Video Codec
Format profile                 : [email protected]
Format settings                : CABAC / 5 Ref Frames
Format settings, CABAC         : Yes
Format settings, Reference fra : 5 frames
Codec ID                       : V_MPEG4/ISO/AVC
Duration                       : 1 h 9 min
Bit rate                       : 899 kb/s
Width                          : 1 280 pixels
Height                         : 950 pixels
Display aspect ratio           : 4:3
Frame rate mode                : Constant
Frame rate                     : 23.976 (24000/1001) FPS
Color space                    : YUV
Chroma subsampling             : 4:2:0
Bit depth                      : 8 bits
Scan type                      : Progressive
Bits/(Pixel*Frame)             : 0.031
Stream size                    : 449 MiB (75%)
Title                          : GOPI SAHI
Writing library                : x264 core 157 r2935 545de2f

Audio #1
ID                             : 2
Format                         : AAC LC
Format/Info                    : Advanced Audio Codec Low Complexity
Codec ID                       : A_AAC-2
Duration                       : 1 h 9 min
Bit rate                       : 96.0 kb/s
Channel(s)                     : 2 channels
Channel layout                 : L R
Sampling rate                  : 48.0 kHz
Frame rate                     : 46.875 FPS (1024 SPF)
Compression mode               : Lossy
Delay relative to video        : -26 ms
Stream size                    : 48.1 MiB (8%)
Title                          : GOPI SAHI
Language                       : Hindi
Default                        : Yes
Forced                         : No

Audio #2
ID                             : 3
Format                         : AAC LC
Format/Info                    : Advanced Audio Codec Low Complexity
Codec ID                       : A_AAC-2
Duration                       : 1 h 9 min
Bit rate                       : 96.0 kb/s
Channel(s)                     : 2 channels
Channel layout                 : L R
Sampling rate                  : 48.0 kHz
Frame rate                     : 46.875 FPS (1024 SPF)
Compression mode               : Lossy
Delay relative to video        : -26 ms
Stream size                    : 48.1 MiB (8%)
Title                          : GOPI SAHI
Language                       : English
Default                        : No
Forced                         : No

Audio #3
ID                             : 4
Format                         : AAC LC
Format/Info                    : Advanced Audio Codec Low Complexity
Codec ID                       : A_AAC-2
Duration                       : 1 h 9 min
Bit rate                       : 96.0 kb/s
Channel(s)                     : 2 channels
Channel layout                 : L R
Sampling rate                  : 48.0 kHz
Frame rate                     : 46.875 FPS (1024 SPF)
Compression mode               : Lossy
Delay relative to video        : -26 ms
Stream size                    : 48.1 MiB (8%)
Title                          : GOPI SAHI
Language                       : Italian
Default                        : No
Forced                         : No

Text #1
ID                             : 5
Format                         : PGS
Muxing mode                    : zlib
Codec ID                       : S_HDMV/PGS
Codec ID/Info                  : Picture based subtitle format used on BDs/HD-DVDs
Duration                       : 6 s 804 ms
Bit rate                       : 3 923 b/s
Count of elements              : 4
Stream size                    : 3.26 KiB (0%)
Title                          : GOPI SAHI
Language                       : Italian
Default                        : Yes
Forced                         : Yes

Text #2
ID                             : 6
Format                         : PGS
Muxing mode                    : zlib
Codec ID                       : S_HDMV/PGS
Codec ID/Info                  : Picture based subtitle format used on BDs/HD-DVDs
Duration                       : 1 h 9 min
Bit rate                       : 13.1 kb/s
Count of elements              : 855
Stream size                    : 6.53 MiB (1%)
Title                          : GOPI SAHI
Language                       : English
Default                        : No
Forced                         : No

Menu
00:00:00.005                   : :Capitolo 01
00:01:19.293                   : :Capitolo 02
00:05:13.151                   : :Capitolo 03
00:08:19.879                   : :Capitolo 04
00:09:50.887                   : :Capitolo 05
00:13:53.546                   : :Capitolo 06
00:15:57.003                   : :Capitolo 07
00:19:50.903                   : :Capitolo 08
00:24:25.427                   : :Capitolo 09
00:27:16.181                   : :Capitolo 10
00:28:26.126                   : :Capitolo 11
00:30:37.090                   : :Capitolo 12
00:34:08.051                   : :Capitolo 13
00:35:29.716                   : :Capitolo 14
00:41:00.171                   : :Capitolo 15
00:41:57.645                   : :Capitolo 16
00:43:29.028                   : :Capitolo 17
00:46:07.895                   : :Capitolo 18
00:47:24.638                   : :Capitolo 19
00:52:25.564                   : :Capitolo 20
00:53:40.889                   : :Capitolo 21
00:55:30.290                   : :Capitolo 22
00:57:41.088                   : :Capitolo 23
01:03:16.381                   : :Capitolo 24
01:07:18.039                   : :Capitolo 25



 MAGNET

TORRENT

MULTIUP

DWONLOAD AUTO START IN 20 SEC WAIT

DWONLOAD AUTO START IN 20 SEC WAIT

GDRIVE


CLOUDRU


MEDIAFIRE

 DOSYA

USAUPLOAD

ONLINE 720P