Atonement 2007 x264 720p Esub BluRay Dual Audio English Hindi GOPI SAHI

 

Atonement (2007)

 
 
Thirteen-year-old fledgling writer Briony Tallis irrevocably changes the course of several lives when she accuses her older sister's lover of a crime he did not commit.
EN

Director:

Joe Wright

Writers:

Ian McEwan (novel), Christopher Hampton (screenplay)
 
 
7.8/10
245,991
Directed byJoe Wright
Produced byTim Bevan
Eric Fellner
Paul Webster
Screenplay byChristopher Hampton
Based onAtonement
by Ian McEwan
StarringJames McAvoy
Keira Knightley
Saoirse Ronan
Romola Garai
Vanessa Redgrave
Music byDario Marianelli
CinematographySeamus McGarvey
Edited byPaul Tothill
Production
company
Distributed byFocus Features (North America)
Universal Pictures (International)
Release date
  • 29 August 2007 (VIFF)
  • 7 September 2007 (United Kingdom)
  • 7 December 2007 (Germany)
  • 9 January 2008 (France)
Running time
123 minutes[1]
Country
LanguageEnglish
Budget£23.2 million ($30 million)[4]
Box office$131 million[5]

 



Atonement 2007 x264 720p Esub BluRay Dual Audio English Hindi GOPI SAHI


Format                         : Matroska
Format version                 : Version 4
File size                      : 968 MiB
Duration                       : 2 h 2 min
Overall bit rate               : 1 102 kb/s
Movie name                     : Atonement 2007 GOPI SAHI
Encoded date                   : UTC 2020-10-15 08:05:32

Video
ID                             : 1
Format                         : AVC
Format/Info                    : Advanced Video Codec
Format profile                 : [email protected]
Format settings                : CABAC / 5 Ref Frames
Format settings, CABAC         : Yes
Format settings, Reference fra : 5 frames
Codec ID                       : V_MPEG4/ISO/AVC
Duration                       : 2 h 2 min
Bit rate                       : 899 kb/s
Width                          : 1 280 pixels
Height                         : 694 pixels
Display aspect ratio           : 1.85:1
Frame rate mode                : Constant
Frame rate                     : 23.976 (24000/1001) FPS
Color space                    : YUV
Chroma subsampling             : 4:2:0
Bit depth                      : 8 bits
Scan type                      : Progressive
Bits/(Pixel*Frame)             : 0.042
Stream size                    : 790 MiB (82%)
Title                          : GOPI SAHI
Writing library                : x264 core 157 r2935 545de2f

Audio #1
ID                             : 2
Format                         : AAC LC
Format/Info                    : Advanced Audio Codec Low Complexity
Codec ID                       : A_AAC-2
Duration                       : 2 h 2 min
Bit rate                       : 96.0 kb/s
Channel(s)                     : 2 channels
Channel layout                 : L R
Sampling rate                  : 48.0 kHz
Frame rate                     : 46.875 FPS (1024 SPF)
Compression mode               : Lossy
Delay relative to video        : -7 ms
Stream size                    : 84.6 MiB (9%)
Title                          : GOPI SAHI
Language                       : Hindi
Default                        : Yes
Forced                         : No

Audio #2
ID                             : 3
Format                         : AAC LC
Format/Info                    : Advanced Audio Codec Low Complexity
Codec ID                       : A_AAC-2
Duration                       : 2 h 2 min
Bit rate                       : 96.0 kb/s
Channel(s)                     : 2 channels
Channel layout                 : L R
Sampling rate                  : 48.0 kHz
Frame rate                     : 46.875 FPS (1024 SPF)
Compression mode               : Lossy
Delay relative to video        : -21 ms
Stream size                    : 84.4 MiB (9%)
Title                          : GOPI SAHI
Language                       : English
Default                        : No
Forced                         : No

Text #1
ID                             : 4
Format                         : PGS
Muxing mode                    : zlib
Codec ID                       : S_HDMV/PGS
Codec ID/Info                  : Picture based subtitle format used on BDs/HD-DVDs
Duration                       : 2 h 1 min
Bit rate                       : 1 588 b/s
Count of elements              : 258
Stream size                    : 1.38 MiB (0%)
Title                          : GOPI SAHI
Language                       : Hindi
Default                        : Yes
Forced                         : Yes

Text #2
ID                             : 5
Format                         : PGS
Muxing mode                    : zlib
Codec ID                       : S_HDMV/PGS
Codec ID/Info                  : Picture based subtitle format used on BDs/HD-DVDs
Duration                       : 1 h 53 min
Bit rate                       : 27.1 kb/s
Count of elements              : 1984
Stream size                    : 22.0 MiB (2%)
Title                          : GOPI SAHI
Language                       : English
Default                        : No
Forced                         : No

Menu
00:00:00.000                   : :Serving Time
00:06:19.921                   : :Save Me
00:13:43.281                   : :By the Sea
00:20:16.215                   : :Put Things Right
00:25:55.387                   : :Remembering
00:32:52.762                   : :Not Ready
00:38:33.353                   : :Can't Escape
00:43:24.894                   : :Wounded
00:49:24.628                   : :With My Own Eyes
00:57:40.290                   : :Telling the Truth
01:04:09.763                   : :Final Act
01:10:14.794                   : :End Titles
01:17:18.300                   : :Driven Apart
01:20:00.170                   : :Judged By Her Address
01:25:00.596                   : :Proud Man
01:28:37.979                   : :Team Minus One
01:34:17.652                   : :Bang!
01:37:28.801                   : :Let Love Fly
01:46:06.235                   : :Dreaming All Along
01:54:21.396                   : :End Credits

 




 MAGNET

TORRENT

MULTIUP

ANONFILES

BAYFILES

DWONLOAD AUTO START IN 20 SEC WAIT

DWONLOAD AUTO START IN 20 SEC WAIT

GDRIVE

CLOUDRU

MEDIAFIRE


DOSYA

USAUPLOAD


ONLINE 720P

ONLINE 720P 2