Aquaman 2018 IMAX x264 720p Esub BluRay Dual Audio English Hindi GOPI SAHI

 

Aquaman (2018)

 
 
Arthur Curry, the human-born heir to the underwater kingdom of Atlantis, goes on a quest to prevent a war between the worlds of ocean and land.
EN

Director:

James Wan

Writers:

David Leslie Johnson-McGoldrick (screenplay by), Will Beall (screenplay by) | 5 more credits »
 
6.9/10 

 

Directed byJames Wan
Produced by
Screenplay by
Story by
Based on
Starring
Music byRupert Gregson-Williams
CinematographyDon Burgess
Edited byKirk Morri
Production
company
Distributed byWarner Bros. Pictures[1]
Release date
Running time
143 minutes[4]
CountryUnited States
LanguageEnglish
Budget$160–200 million[5][6][7]
Box office$1.148 billion[8]


Aquaman 2018 IMAX x264 720p Esub BluRay Dual Audio English Hindi GOPI SAHI


Format                         : Matroska
Format version                 : Version 4
File size                      : 1.10 GiB
Duration                       : 2 h 23 min
Overall bit rate               : 1 102 kb/s
Movie name                     : Aquaman 2018 IMAX GOPI SAHI
Encoded date                   : UTC 2020-10-20 07:46:31


Video
ID                             : 1
Format                         : AVC
Format/Info                    : Advanced Video Codec
Format profile                 : [email protected]
Format settings                : CABAC / 5 Ref Frames
Format settings, CABAC         : Yes
Format settings, Reference fra : 5 frames
Codec ID                       : V_MPEG4/ISO/AVC
Duration                       : 2 h 23 min
Bit rate                       : 899 kb/s
Width                          : 1 280 pixels
Height                         : 720 pixels
Display aspect ratio           : 16:9
Frame rate mode                : Constant
Frame rate                     : 23.976 (24000/1001) FPS
Color space                    : YUV
Chroma subsampling             : 4:2:0
Bit depth                      : 8 bits
Scan type                      : Progressive
Bits/(Pixel*Frame)             : 0.041
Stream size                    : 921 MiB (81%)
Title                          : GOPI SAHI
Writing library                : x264 core 157 r2935 545de2f

Audio #1
ID                             : 2
Format                         : AAC LC
Format/Info                    : Advanced Audio Codec Low Complexity
Codec ID                       : A_AAC-2
Duration                       : 2 h 23 min
Bit rate                       : 96.0 kb/s
Channel(s)                     : 2 channels
Channel layout                 : L R
Sampling rate                  : 48.0 kHz
Frame rate                     : 46.875 FPS (1024 SPF)
Compression mode               : Lossy
Delay relative to video        : 965 ms
Stream size                    : 98.9 MiB (9%)
Title                          : GOPI SAHI
Language                       : Hindi
Default                        : Yes
Forced                         : No

Audio #2
ID                             : 3
Format                         : AAC LC
Format/Info                    : Advanced Audio Codec Low Complexity
Codec ID                       : A_AAC-2
Duration                       : 2 h 23 min
Bit rate                       : 96.0 kb/s
Channel(s)                     : 2 channels
Channel layout                 : L R
Sampling rate                  : 48.0 kHz
Frame rate                     : 46.875 FPS (1024 SPF)
Compression mode               : Lossy
Delay relative to video        : -21 ms
Stream size                    : 98.9 MiB (9%)
Title                          : GOPI SAHI
Language                       : English
Default                        : No
Forced                         : No

Text #1
ID                             : 4
Format                         : PGS
Muxing mode                    : zlib
Codec ID                       : S_HDMV/PGS
Codec ID/Info                  : Picture based subtitle format used on BDs/HD-DVDs
Duration                       : 2 h 18 min
Bit rate                       : 224 b/s
Count of elements              : 34
Stream size                    : 228 KiB (0%)
Title                          : GOPI SAHI
Language                       : Hindi
Default                        : Yes
Forced                         : Yes

Text #2
ID                             : 5
Format                         : PGS
Muxing mode                    : zlib
Codec ID                       : S_HDMV/PGS
Codec ID/Info                  : Picture based subtitle format used on BDs/HD-DVDs
Duration                       : 2 h 22 min
Bit rate                       : 25.8 kb/s
Count of elements              : 2940
Stream size                    : 26.4 MiB (2%)
Title                          : GOPI SAHI
Language                       : English
Default                        : No
Forced                         : No

Text #3
ID                             : 6
Format                         : PGS
Muxing mode                    : zlib
Codec ID                       : S_HDMV/PGS
Codec ID/Info                  : Picture based subtitle format used on BDs/HD-DVDs
Duration                       : 2 h 18 min
Bit rate                       : 332 b/s
Count of elements              : 34
Stream size                    : 338 KiB (0%)
Title                          : GOPI SAHI
Language                       : Tamil
Default                        : No
Forced                         : No

Text #4
ID                             : 7
Format                         : PGS
Muxing mode                    : zlib
Codec ID                       : S_HDMV/PGS
Codec ID/Info                  : Picture based subtitle format used on BDs/HD-DVDs
Duration                       : 1 h 59 min
Bit rate                       : 120 b/s
Count of elements              : 12
Stream size                    : 106 KiB (0%)
Title                          : GOPI SAHI
Language                       : Telugu
Default                        : No
Forced                         : No

Menu
00:00:00.000                   : :Chapter 1
00:11:09.460                   : :Chapter 2
00:22:11.622                   : :Chapter 3
00:30:11.018                   : :Chapter 4
00:40:28.718                   : :Chapter 5
00:50:24.647                   : :Chapter 6
01:01:15.755                   : :Chapter 7
01:08:57.091                   : :Chapter 8
01:21:41.397                   : :Chapter 9
01:34:50.518                   : :Chapter 10
01:39:37.430                   : :Chapter 11
01:49:32.900                   : :Chapter 12
02:01:36.539                   : :Chapter 13
02:10:19.895                   : :Chapter 14


 

MAGNET

TORRENT

MULTIUP

ANONFILES

BAYFILES

DWONLOAD AUTO START IN 20 SEC WAIT

DWONLOAD AUTO START IN 20 SEC WAIT

GDRIVE

CLOUDRU

MEDIAFIRE

ONLINE 720P

ONLINE 720P 2