American Wedding 2003 x264 720p Esub BluRay Dual Audio English Hindi GOPI SAHI

American Wedding (2003)

R | | Comedy | 1 August 2003 (USA)
It's the wedding of Jim and Michelle and the gathering of their families and friends, including Jim's old friends from high school and Michelle's little sister.
EN

Director:

Jesse Dylan

Writers:

Adam Herz (characters), Adam Herz

6.3/10
192,049

Directed byJesse Dylan
Produced byChris Moore
Warren Zide
Craig Perry
Adam Herz
Chris Bender
Paul Weitz
Chris Weitz
Written byAdam Herz
Based onCharacters
by Adam Herz
StarringJason Biggs
Alyson Hannigan
January Jones
Thomas Ian Nicholas
Seann William Scott
Eddie Kaye Thomas
Fred Willard
Eugene Levy
Music byChristophe Beck
CinematographyLloyd Ahern
Edited byStuart Pappé
Production
company
Distributed byUniversal Pictures
Release date
  • August 1, 2003[1]
Running time
96 minutes[2]
CountryUnited States
LanguageEnglish
Budget$55 million[3]
Box office$231.5 million[4]




American Wedding 2003 GOPI SAHI

Format                         : Matroska
Format version                 : Version 4
File size                      : 754 MiB
Duration                       : 1 h 36 min
Overall bit rate               : 1 095 kb/s
Movie name                     : American Wedding 2003 GOPI SAHI
Encoded date                   : UTC 2020-10-01 23:48:57

Video
ID                             : 1
Format                         : AVC
Format/Info                    : Advanced Video Codec
Format profile                 : [email protected]
Format settings                : CABAC / 5 Ref Frames
Format settings, CABAC         : Yes
Format settings, Reference fra : 5 frames
Codec ID                       : V_MPEG4/ISO/AVC
Duration                       : 1 h 36 min
Bit rate                       : 899 kb/s
Width                          : 1 280 pixels
Height                         : 542 pixels
Display aspect ratio           : 2.35:1
Frame rate mode                : Constant
Frame rate                     : 23.976 (24000/1001) FPS
Color space                    : YUV
Chroma subsampling             : 4:2:0
Bit depth                      : 8 bits
Scan type                      : Progressive
Bits/(Pixel*Frame)             : 0.054
Stream size                    : 619 MiB (82%)
Title                          : GOPI SAHI
Writing library                : x264 core 157 r2935 545de2f

Audio #1
ID                             : 2
Format                         : AAC LC
Format/Info                    : Advanced Audio Codec Low Complexity
Codec ID                       : A_AAC-2
Duration                       : 1 h 36 min
Bit rate                       : 96.0 kb/s
Channel(s)                     : 2 channels
Channel layout                 : L R
Sampling rate                  : 48.0 kHz
Frame rate                     : 46.875 FPS (1024 SPF)
Compression mode               : Lossy
Delay relative to video        : -21 ms
Stream size                    : 66.4 MiB (9%)
Title                          : GOPI SAHI
Language                       : Hindi
Default                        : Yes
Forced                         : No

Audio #2
ID                             : 3
Format                         : AAC LC
Format/Info                    : Advanced Audio Codec Low Complexity
Codec ID                       : A_AAC-2
Duration                       : 1 h 36 min
Bit rate                       : 96.0 kb/s
Channel(s)                     : 2 channels
Channel layout                 : L R
Sampling rate                  : 48.0 kHz
Frame rate                     : 46.875 FPS (1024 SPF)
Compression mode               : Lossy
Delay relative to video        : -21 ms
Stream size                    : 66.4 MiB (9%)
Title                          : GOPI SAHI
Language                       : English
Default                        : No
Forced                         : No

Text #1
ID                             : 4
Format                         : UTF-8
Codec ID                       : S_TEXT/UTF8
Codec ID/Info                  : UTF-8 Plain Text
Duration                       : 1 h 30 min
Bit rate                       : 78 b/s
Count of elements              : 1819
Stream size                    : 52.2 KiB (0%)
Title                          : GOPI SAHI
Language                       : English
Default                        : No
Forced                         : No

Text #2
ID                             : 5
Format                         : UTF-8
Codec ID                       : S_TEXT/UTF8
Codec ID/Info                  : UTF-8 Plain Text
Duration                       : 1 h 35 min
Bit rate                       : 173 b/s
Count of elements              : 1439
Stream size                    : 121 KiB (0%)
Title                          : GOPI SAHI
Language                       : Hindi
Default                        : No
Forced                         : No