American Reunion 2012 x264 720p Esub BluRay Dual Audio English Hindi GOPI SAHI

American Reunion (2012)


R | | Comedy | 6 April 2012 (USA)

Jim, Michelle, Stifler, and their friends reunite in East Great Falls, Michigan for their high school reunion.
EN

Writers:

Jon Hurwitz (screenplay), Hayden Schlossberg (screenplay) | 1 more credit »

6.7/10
200,420

Directed by
Produced by
Written by
  • Jon Hurwitz
  • Hayden Schlossberg
Based onCharacters created
by Adam Herz
Starring
Music byLyle Workman
CinematographyDaryn Okada[1]
Edited byJeff Betancourt[1]
Production
company
Distributed byUniversal Pictures
Release date
  • April 6, 2012
Running time
113 minutes[2]
CountryUnited States
LanguageEnglish
Budget$50 million[2]
Box office$235 million[2]


American Reunion 2012 GOPI SAHI

Format                         : Matroska
Format version                 : Version 4
File size                      : 907 MiB
Duration                       : 1 h 52 min
Overall bit rate               : 1 123 kb/s
Movie name                     : American Reunion 2012 GOPI SAHI
Encoded date                   : UTC 2020-09-29 02:25:31
Attachments                    : Hammer Logo.jpg

Video
ID                             : 1
Format                         : AVC
Format/Info                    : Advanced Video Codec
Format profile                 : [email protected]
Format settings                : CABAC / 5 Ref Frames
Format settings, CABAC         : Yes
Format settings, Reference fra : 5 frames
Codec ID                       : V_MPEG4/ISO/AVC
Duration                       : 1 h 52 min
Bit rate                       : 899 kb/s
Width                          : 1 280 pixels
Height                         : 694 pixels
Display aspect ratio           : 1.85:1
Frame rate mode                : Constant
Frame rate                     : 23.976 (24000/1001) FPS
Color space                    : YUV
Chroma subsampling             : 4:2:0
Bit depth                      : 8 bits
Scan type                      : Progressive
Bits/(Pixel*Frame)             : 0.042
Stream size                    : 725 MiB (80%)
Title                          : GOPI SAHI
Writing library                : x264 core 157 r2935 545de2f

Audio #1
ID                             : 2
Format                         : AAC LC
Format/Info                    : Advanced Audio Codec Low Complexity
Codec ID                       : A_AAC-2
Duration                       : 1 h 52 min
Bit rate                       : 96.0 kb/s
Channel(s)                     : 2 channels
Channel layout                 : L R
Sampling rate                  : 48.0 kHz
Frame rate                     : 46.875 FPS (1024 SPF)
Compression mode               : Lossy
Delay relative to video        : 2 s 658 ms
Stream size                    : 77.7 MiB (9%)
Title                          : GOPI SAHI
Language                       : Hindi
Default                        : Yes
Forced                         : No

Audio #2
ID                             : 3
Format                         : AAC LC
Format/Info                    : Advanced Audio Codec Low Complexity
Codec ID                       : A_AAC-2
Duration                       : 1 h 52 min
Bit rate                       : 96.0 kb/s
Channel(s)                     : 2 channels
Channel layout                 : L R
Sampling rate                  : 48.0 kHz
Frame rate                     : 46.875 FPS (1024 SPF)
Compression mode               : Lossy
Delay relative to video        : 2 s 658 ms
Stream size                    : 77.8 MiB (9%)
Title                          : GOPI SAHI
Language                       : English
Default                        : No
Forced                         : No

Text #1
ID                             : 4
Format                         : PGS
Muxing mode                    : zlib
Codec ID                       : S_HDMV/PGS
Codec ID/Info                  : Picture based subtitle format used on BDs/HD-DVDs
Duration                       : 1 h 42 min
Bit rate                       : 796 b/s
Count of elements              : 76
Stream size                    : 597 KiB (0%)
Title                          : GOPI SAHI
Language                       : Hindi
Default                        : Yes
Forced                         : No

Text #2
ID                             : 5
Format                         : PGS
Muxing mode                    : zlib
Codec ID                       : S_HDMV/PGS
Codec ID/Info                  : Picture based subtitle format used on BDs/HD-DVDs
Duration                       : 1 h 52 min
Bit rate                       : 47.9 kb/s
Count of elements              : 8378
Stream size                    : 38.5 MiB (4%)
Title                          : GOPI SAHI
Language                       : English
Default                        : No
Forced                         : No