American Pie Presents Band Camp 2005 TC Cut x264 720p Esub BluRay Dual Audio English Hindi GOPI SAHI

American Pie Presents: Band Camp (2005)

Band Camp (original title)
Matt Stifler wants to be just like his big bro, making porn movies and having a good time in college. After sabotaging the school band, he gets sent to band camp where he really doesn't like it at first but then learns how to deal with the bandeez.
EN

Director:

Steve Rash

Writers:

Adam Herz (characters), Brad Riddell
5.1/10

Directed bySteve Rash
Produced byMike Elliott
Written byBrad Riddell
Based onCharacters
by Adam Herz
Starring
Music byRobert Folk
CinematographyVictor J. Kemper
Edited byDanny Saphire
Production
company
Distributed byUniversal Studios Home Entertainment
Release date
December 26, 2005
Running time
92 minutes
CountryUnited States
LanguageEnglish
Budget$15 million



American Pie Presents Band Camp 2005 TC Cut GOPI SAHI

Format                         : Matroska
Format version                 : Version 4
File size                      : 731 MiB
Duration                       : 1 h 31 min
Overall bit rate               : 1 122 kb/s
Movie name                     : American Pie Presents Band Camp 2005 TC Cut GOPI SAHI
Encoded date                   : UTC 2020-09-29 10:58:22
Writing library                : libebml v1.3.10 + libmatroska v1.5.2
Attachments                    : Hammer Logo.jpg

Video
ID                             : 1
Format                         : AVC
Format/Info                    : Advanced Video Codec
Format profile                 : [email protected]
Format settings                : CABAC / 5 Ref Frames
Format settings, CABAC         : Yes
Format settings, Reference fra : 5 frames
Codec ID                       : V_MPEG4/ISO/AVC
Duration                       : 1 h 30 min
Bit rate                       : 899 kb/s
Width                          : 1 280 pixels
Height                         : 720 pixels
Display aspect ratio           : 16:9
Frame rate mode                : Constant
Frame rate                     : 23.976 (24000/1001) FPS
Color space                    : YUV
Chroma subsampling             : 4:2:0
Bit depth                      : 8 bits
Scan type                      : Progressive
Bits/(Pixel*Frame)             : 0.041
Stream size                    : 584 MiB (80%)
Title                          : GOPI SAHI
Writing library                : x264 core 157 r2935 545de2f

Audio #1
ID                             : 2
Format                         : AAC LC
Format/Info                    : Advanced Audio Codec Low Complexity
Codec ID                       : A_AAC-2
Duration                       : 1 h 31 min
Bit rate                       : 96.0 kb/s
Channel(s)                     : 2 channels
Channel layout                 : L R
Sampling rate                  : 48.0 kHz
Frame rate                     : 46.875 FPS (1024 SPF)
Compression mode               : Lossy
Delay relative to video        : -4 ms
Stream size                    : 62.8 MiB (9%)
Title                          : GOPI SAHI
Language                       : Hindi
Default                        : Yes
Forced                         : No

Audio #2
ID                             : 3
Format                         : AAC LC
Format/Info                    : Advanced Audio Codec Low Complexity
Codec ID                       : A_AAC-2
Duration                       : 1 h 31 min
Bit rate                       : 96.0 kb/s
Channel(s)                     : 2 channels
Channel layout                 : L R
Sampling rate                  : 48.0 kHz
Frame rate                     : 46.875 FPS (1024 SPF)
Compression mode               : Lossy
Delay relative to video        : -4 ms
Stream size                    : 62.8 MiB (9%)
Title                          : GOPI SAHI
Language                       : English
Default                        : No
Forced                         : No

Text #1
ID                             : 4
Format                         : PGS
Muxing mode                    : zlib
Codec ID                       : S_HDMV/PGS
Codec ID/Info                  : Picture based subtitle format used on BDs/HD-DVDs
Duration                       : 1 h 30 min
Bit rate                       : 26.1 kb/s
Count of elements              : 2162
Stream size                    : 16.8 MiB (2%)
Title                          : GOPI SAHI
Language                       : Hindi
Default                        : No
Forced                         : No

Text #2
ID                             : 5
Format                         : PGS
Muxing mode                    : zlib
Codec ID                       : S_HDMV/PGS
Codec ID/Info                  : Picture based subtitle format used on BDs/HD-DVDs
Duration                       : 1 h 29 min
Bit rate                       : 33.9 kb/s
Count of elements              : 2228
Stream size                    : 21.8 MiB (3%)
Title                          : GOPI SAHI
Language                       : English
Default                        : No
Forced                         : No