Adrift 2018 x264 720p Esub BluRay Dual Audio English Hindi GOPI SAHI

 

Adrift (2018)

 
A true story of survival, as a young couple's chance encounter leads them first to love, and then on the adventure of a lifetime as they face one of the most catastrophic hurricanes in recorded history.
EN

Director:

Baltasar Kormákur

Writers:

Aaron Kandell (screenplay by), Jordan Kandell (screenplay by) | 3 more credits »
 
6.6/10
45,400
 
Directed byBaltasar Kormákur
Produced by
Written by
  • Aaron Kandell
  • Jordan Kandell
  • David Branson Smith
Based on
Red Sky in Mourning: A True Story of Love, Loss, and Survival at Sea
by
Starring
Music byVolker Bertelmann
CinematographyRobert Richardson
Edited byJohn Gilbert
Production
company
Distributed bySTX Films
Release date
  • June 1, 2018 (United States)
Running time
96 minutes[1]
CountryUnited States
LanguageEnglish
Budget$35 million[2]
Box office$59.9 million[2]

 

Adrift 2018 x264 720p Esub BluRay Dual Audio English Hindi GOPI SAHI

Format                         : Matroska
Format version                 : Version 4
File size                      : 760 MiB
Duration                       : 1 h 36 min
Overall bit rate               : 1 098 kb/s
Movie name                     : Adrift 2018 GOPI SAHI
Encoded date                   : UTC 2020-10-22 15:40:23

Video
ID                             : 1
Format                         : AVC
Format/Info                    : Advanced Video Codec
Format profile                 : [email protected]
Format settings                : CABAC / 5 Ref Frames
Format settings, CABAC         : Yes
Format settings, Reference fra : 5 frames
Codec ID                       : V_MPEG4/ISO/AVC
Duration                       : 1 h 36 min
Bit rate                       : 899 kb/s
Width                          : 1 280 pixels
Height                         : 534 pixels
Display aspect ratio           : 2.40:1
Frame rate mode                : Constant
Frame rate                     : 23.976 (24000/1001) FPS
Color space                    : YUV
Chroma subsampling             : 4:2:0
Bit depth                      : 8 bits
Scan type                      : Progressive
Bits/(Pixel*Frame)             : 0.055
Stream size                    : 622 MiB (82%)
Title                          : GOPI SAHI
Writing library                : x264 core 157 r2935 545de2f

Audio #1
ID                             : 2
Format                         : AAC LC
Format/Info                    : Advanced Audio Codec Low Complexity
Codec ID                       : A_AAC-2
Duration                       : 1 h 36 min
Bit rate                       : 96.0 kb/s
Channel(s)                     : 2 channels
Channel layout                 : L R
Sampling rate                  : 48.0 kHz
Frame rate                     : 46.875 FPS (1024 SPF)
Compression mode               : Lossy
Delay relative to video        : 25 s 316 ms
Stream size                    : 66.4 MiB (9%)
Title                          : GOPI SAHI
Language                       : Hindi
Default                        : Yes
Forced                         : No

Audio #2
ID                             : 3
Format                         : AAC LC
Format/Info                    : Advanced Audio Codec Low Complexity
Codec ID                       : A_AAC-2
Duration                       : 1 h 36 min
Bit rate                       : 96.0 kb/s
Channel(s)                     : 2 channels
Channel layout                 : L R
Sampling rate                  : 48.0 kHz
Frame rate                     : 46.875 FPS (1024 SPF)
Compression mode               : Lossy
Delay relative to video        : -64 ms
Stream size                    : 66.8 MiB (9%)
Title                          : GOPI SAHI
Language                       : English
Default                        : No
Forced                         : No

Text
ID                             : 4
Format                         : VobSub
Muxing mode                    : zlib
Codec ID                       : S_VOBSUB
Codec ID/Info                  : Picture based subtitle format used on DVDs
Duration                       : 1 h 28 min
Bit rate                       : 7 299 b/s
Count of elements              : 995
Stream size                    : 4.61 MiB (1%)
Title                          : GOPI SAHI
Language                       : English
Default                        : No
Forced                         : No



 

MAGNET

TORRENT

MULTIUP

DWONLOAD AUTO START IN 20 SEC WAIT

DWONLOAD AUTO START IN 20 SEC WAIT

GDRIVE

CLOUDRU

MEDIAFIRE


DOSYA

USAUPLOAD

ONLINE 720P