A Quiet Place 2018 x264 720p Esub BluRay Dual Audio English Hindi GOPI SAHI

A Quiet Place (2018)



PG-13 | | Drama, Horror, Sci-Fi | 6 April 2018 (USA) 
 
In a post-apocalyptic world, a family is forced to live in silence while hiding from monsters with ultra-sensitive hearing.
EN

Director:

John Krasinski

Writers:

Bryan Woods (screenplay by), Scott Beck (screenplay by) | 3 more credits »

7.5/10
394,064

Directed byJohn Krasinski
Produced by
Screenplay by
Story by
  • Bryan Woods
  • Scott Beck
Starring
Music byMarco Beltrami
CinematographyCharlotte Bruus Christensen
Edited byChristopher Tellefsen
Production
company
Distributed byParamount Pictures
Release date
  • March 9, 2018 (SXSW)
  • April 6, 2018 (United States)
Running time
90 minutes[1]
CountryUnited States
Language
Budget$17–21 million[2][3]
Box office$340.9 million[4]


A Quiet Place 2018 x264 720p Esub BluRay Dual Audio English Hindi GOPI SAHI

Format                         : Matroska
Format version                 : Version 4
File size                      : 802 MiB
Duration                       : 1 h 30 min
Overall bit rate               : 1 242 kb/s
Movie name                     : A Quiet Place 2018 GOPISAHI
Encoded date                   : UTC 2018-07-19 12:07:52


Video
ID                             : 1
Format                         : AVC
Format/Info                    : Advanced Video Codec
Format profile                 : [email protected]
Format settings                : CABAC / 4 Ref Frames
Format settings, CABAC         : Yes
Format settings, Reference fra : 4 frames
Codec ID                       : V_MPEG4/ISO/AVC
Duration                       : 1 h 30 min
Bit rate                       : 1 050 kb/s
Width                          : 1 280 pixels
Height                         : 534 pixels
Display aspect ratio           : 2.40:1
Original display aspect ratio  : 2.40:1
Frame rate mode                : Constant
Frame rate                     : 23.976 (24000/1001) FPS
Color space                    : YUV
Chroma subsampling             : 4:2:0
Bit depth                      : 8 bits
Scan type                      : Progressive
Bits/(Pixel*Frame)             : 0.064
Stream size                    : 678 MiB (85%)
Title                          : GOPISAHI
Writing library                : x264 core 155

Audio #1
ID                             : 3
Format                         : AAC LC
Format/Info                    : Advanced Audio Codec Low Complexity
Codec ID                       : A_AAC-2
Duration                       : 1 h 30 min
Bit rate                       : 96.0 kb/s
Channel(s)                     : 2 channels
Channel layout                 : L R
Sampling rate                  : 48.0 kHz
Frame rate                     : 46.875 FPS (1024 SPF)
Compression mode               : Lossy
Delay relative to video        : -43 ms
Stream size                    : 61.4 MiB (8%)
Title                          : GOPISAHI
Language                       : English
Default                        : No
Forced                         : No

Audio #2
ID                             : 4
Format                         : AAC LC
Format/Info                    : Advanced Audio Codec Low Complexity
Codec ID                       : A_AAC-2
Duration                       : 1 h 30 min
Bit rate                       : 96.0 kb/s
Channel(s)                     : 2 channels
Channel layout                 : L R
Sampling rate                  : 48.0 kHz
Frame rate                     : 46.875 FPS (1024 SPF)
Compression mode               : Lossy
Delay relative to video        : -43 ms
Stream size                    : 60.9 MiB (8%)
Title                          : GOPISAHI
Language                       : Hindi
Default                        : Yes
Forced                         : No

Text
ID                             : 2
Format                         : UTF-8
Codec ID                       : S_TEXT/UTF8
Codec ID/Info                  : UTF-8 Plain Text
Duration                       : 1 h 11 min
Bit rate                       : 7 b/s
Count of elements              : 177
Stream size                    : 4.14 KiB (0%)
Title                          : GOPISAHI
Language                       : English
Default                        : Yes
Forced                         : No