9 2009 x264 720p Esub BluRay Dual Audio English Hindi GOPI SAHI

(2009)

 
A rag doll that awakens in a postapocalyptic future holds the key to humanity's salvation.
EN

Director:

Shane Acker

Writers:

Pamela Pettler (screenplay by), Shane Acker (story by)
7.1/10


Directed byShane Acker[1]
Produced by
Screenplay byPamela Pettler[1]
Story byShane Acker[1]
Based on9
by Shane Acker
Starring
Music byDeborah Lurie[1]
CinematographyKevin R. Adams[1]
Edited byNick Kenway[1]
Production
company
Distributed byFocus Features[1]
Release date
  • September 9, 2009[2]
Running time
79 minutes[3]
CountryUnited States[4]
LanguageEnglish
Budget$30 million[2]
Box office$48.4 million[2]



9 2009 x264 720p Esub BluRay Dual Audio English Hindi GOPI SAHI

Format                         : Matroska
Format version                 : Version 4
File size                      : 626 MiB
Duration                       : 1 h 19 min
Overall bit rate               : 1 101 kb/s
Movie name                     : 9 2009 GOPI SAHI
Encoded date                   : UTC 2020-09-30 03:39:27
Attachments                    : Hammer Logo.jpg

Video
ID                             : 1
Format                         : AVC
Format/Info                    : Advanced Video Codec
Format profile                 : [email protected]
Format settings                : CABAC / 5 Ref Frames
Format settings, CABAC         : Yes
Format settings, Reference fra : 5 frames
Codec ID                       : V_MPEG4/ISO/AVC
Duration                       : 1 h 19 min
Bit rate                       : 899 kb/s
Width                          : 1 280 pixels
Height                         : 694 pixels
Display aspect ratio           : 1.85:1
Frame rate mode                : Constant
Frame rate                     : 23.976 (24000/1001) FPS
Color space                    : YUV
Chroma subsampling             : 4:2:0
Bit depth                      : 8 bits
Scan type                      : Progressive
Bits/(Pixel*Frame)             : 0.042
Stream size                    : 510 MiB (82%)
Title                          : GOPI SAHI
Writing library                : x264 core 157 r2935 545de2f

Audio #1
ID                             : 2
Format                         : AAC LC
Format/Info                    : Advanced Audio Codec Low Complexity
Codec ID                       : A_AAC-2
Duration                       : 1 h 19 min
Bit rate                       : 96.0 kb/s
Channel(s)                     : 2 channels
Channel layout                 : L R
Sampling rate                  : 48.0 kHz
Frame rate                     : 46.875 FPS (1024 SPF)
Compression mode               : Lossy
Delay relative to video        : -19 ms
Stream size                    : 54.7 MiB (9%)
Title                          : GOPI SAHI
Language                       : Hindi
Default                        : Yes
Forced                         : No

Audio #2
ID                             : 3
Format                         : AAC LC
Format/Info                    : Advanced Audio Codec Low Complexity
Codec ID                       : A_AAC-2
Duration                       : 1 h 19 min
Bit rate                       : 96.0 kb/s
Channel(s)                     : 2 channels
Channel layout                 : L R
Sampling rate                  : 48.0 kHz
Frame rate                     : 46.875 FPS (1024 SPF)
Compression mode               : Lossy
Delay relative to video        : -21 ms
Stream size                    : 54.7 MiB (9%)
Title                          : GOPI SAHI
Language                       : English
Default                        : No
Forced                         : No

Text
ID                             : 4
Format                         : PGS
Muxing mode                    : zlib
Codec ID                       : S_HDMV/PGS
Codec ID/Info                  : Picture based subtitle format used on BDs/HD-DVDs
Duration                       : 1 h 11 min
Bit rate                       : 17.6 kb/s
Count of elements              : 712
Stream size                    : 8.95 MiB (1%)
Title                          : English PGS
Language                       : English
Default                        : Yes
Forced                         : No