Wrecker 2016 x264 720p Esub Dual Audio English Hindi Telugu Tamil GOPI SAHI

Driver from Hell (2016)

Wrecker (original title)
TV-14 | | Action, Horror, Thriller | 7 July 2017 (USA)



Two beautiful young women taking a trip through the countryside, are terrorized by an unknown driver trying to run them down in a heavy duty tow truck.
EN

Director:

Micheal Bafaro (as Michael Bafaro)

Writers:

Micheal Bafaro (as Michael Bafaro), Evan Tylor

3.4/10
2,087

Directed byMicheal Bafaro
Produced by
  • Evan Taylor
  • John Curtis
  • Don Knodel
Screenplay byMicheal Bafaro
Story by
  • Evan Tylor
  • Michael Bafaro
Starring
  • Anna Hutchison
  • Drea Whitburn
  • Jennifer Koenig
  • Michael Dickson
  • Kurtis Maguire
  • Andy Nez
  • Lori Watt
  • Steve Thackray
  • Dylan Rhymer
Music byVince Mai
Cinematography
  • Jon Thomas
  • Ian MacDougall
Edited by
Production
company
Industryworks Studios
Distributed by
Release date
  • November 6, 2015
Running time
83 minutes
CountryCanada
LanguageEnglish


Wrecker 2016 x264 720p Esub Dual Audio English Hindi Telugu Tamil GOPI SAHI

Format                         : Matroska
Format version                 : Version 4
File size                      : 679 MiB
Duration                       : 1 h 13 min
Overall bit rate               : 1 288 kb/s
Movie name                     : Wrecker 2016 GOPI SAHI
Encoded date                   : UTC 2020-09-19 04:29:22

Video
ID                             : 1
Format                         : AVC
Format/Info                    : Advanced Video Codec
Format profile                 : [email protected]
Format settings                : CABAC / 5 Ref Frames
Format settings, CABAC         : Yes
Format settings, Reference fra : 5 frames
Codec ID                       : V_MPEG4/ISO/AVC
Duration                       : 1 h 13 min
Bit rate                       : 899 kb/s
Width                          : 1 280 pixels
Height                         : 540 pixels
Display aspect ratio           : 2.40:1
Frame rate mode                : Constant
Frame rate                     : 23.976 (24000/1001) FPS
Color space                    : YUV
Chroma subsampling             : 4:2:0
Bit depth                      : 8 bits
Scan type                      : Progressive
Bits/(Pixel*Frame)             : 0.054
Stream size                    : 473 MiB (70%)
Title                          : GOPI SAHI
Writing library                : x264 core 157 r2935 545de2f

Audio #1
ID                             : 2
Format                         : AAC LC
Format/Info                    : Advanced Audio Codec Low Complexity
Codec ID                       : A_AAC-2
Duration                       : 1 h 13 min
Bit rate                       : 96.0 kb/s
Channel(s)                     : 2 channels
Channel layout                 : L R
Sampling rate                  : 48.0 kHz
Frame rate                     : 46.875 FPS (1024 SPF)
Compression mode               : Lossy
Delay relative to video        : 4 s 979 ms
Stream size                    : 50.7 MiB (7%)
Title                          : GOPI SAHI
Language                       : Hindi
Default                        : Yes
Forced                         : No

Audio #2
ID                             : 3
Format                         : AAC LC
Format/Info                    : Advanced Audio Codec Low Complexity
Codec ID                       : A_AAC-2
Duration                       : 1 h 13 min
Bit rate                       : 96.0 kb/s
Channel(s)                     : 2 channels
Channel layout                 : L R
Sampling rate                  : 48.0 kHz
Frame rate                     : 46.875 FPS (1024 SPF)
Compression mode               : Lossy
Delay relative to video        : -21 ms
Stream size                    : 50.8 MiB (7%)
Title                          : GOPI SAHI
Language                       : English
Default                        : No
Forced                         : No

Audio #3
ID                             : 4
Format                         : AAC LC
Format/Info                    : Advanced Audio Codec Low Complexity
Codec ID                       : A_AAC-2
Duration                       : 1 h 13 min
Bit rate                       : 96.0 kb/s
Channel(s)                     : 2 channels
Channel layout                 : L R
Sampling rate                  : 48.0 kHz
Frame rate                     : 46.875 FPS (1024 SPF)
Compression mode               : Lossy
Delay relative to video        : 4 s 979 ms
Stream size                    : 50.7 MiB (7%)
Title                          : GOPI SAHI
Language                       : Tamil
Default                        : No
Forced                         : No

Audio #4
ID                             : 5
Format                         : AAC LC
Format/Info                    : Advanced Audio Codec Low Complexity
Codec ID                       : A_AAC-2
Duration                       : 1 h 13 min
Bit rate                       : 96.0 kb/s
Channel(s)                     : 2 channels
Channel layout                 : L R
Sampling rate                  : 48.0 kHz
Frame rate                     : 46.875 FPS (1024 SPF)
Compression mode               : Lossy
Delay relative to video        : 4 s 979 ms
Stream size                    : 50.7 MiB (7%)
Title                          : GOPI SAHI
Language                       : Telugu
Default                        : No
Forced                         : No

Text
ID                             : 6
Format                         : UTF-8
Codec ID                       : S_TEXT/UTF8
Codec ID/Info                  : UTF-8 Plain Text
Duration                       : 1 h 11 min
Bit rate                       : 32 b/s
Count of elements              : 638
Stream size                    : 16.8 KiB (0%)
Title                          : GOPI SAHI
Language                       : English
Default                        : Yes
Forced                         : No