Welcome To Marwen 2018 x264 720p Esub BluRay Dual Audio English Hindi GOPI SAHI


Welcome to Marwen (2018)

A victim of a brutal attack finds a unique and beautiful therapeutic outlet to help him through his recovery process.
EN

Director:

Robert Zemeckis

Writers:

Robert Zemeckis (screenplay by), Caroline Thompson (screenplay by)
 
6.2/10
17,892

Directed byRobert Zemeckis
Produced by
Screenplay by
Starring
Music byAlan Silvestri
CinematographyC. Kim Miles
Edited byJeremiah O'Driscoll
Production
company
Distributed byUniversal Pictures[1]
Release date
  • December 21, 2018 (United States)
Running time
116 minutes
CountryUnited States
LanguageEnglish
Budget$39–50 million[3][4]
Box office$13.1 million[3]


Welcome to Marwen 2018 x264 720p Esub BluRay Dual Audio English Hindi GOPI SAHI

Format                         : Matroska
Format version                 : Version 4
File size                      : 924 MiB
Duration                       : 1 h 55 min
Overall bit rate               : 1 115 kb/s
Movie name                     : Welcome to Marwen 2018 GOPI SAHI
Encoded date                   : UTC 2020-09-02 15:24:38
Writing application            : mkvmerge v46.0.0 ('No Deeper Escape') 32-bit
Writing library                : libebml v1.3.10 + libmatroska v1.5.2
Attachments                    : Hammer Logo.jpg

Video
ID                             : 1
Format                         : AVC
Format/Info                    : Advanced Video Codec
Format profile                 : [email protected]
Format settings                : CABAC / 5 Ref Frames
Format settings, CABAC         : Yes
Format settings, Reference fra : 5 frames
Codec ID                       : V_MPEG4/ISO/AVC
Duration                       : 1 h 55 min
Bit rate                       : 899 kb/s
Width                          : 1 280 pixels
Height                         : 534 pixels
Display aspect ratio           : 2.40:1
Frame rate mode                : Constant
Frame rate                     : 23.976 (24000/1001) FPS
Color space                    : YUV
Chroma subsampling             : 4:2:0
Bit depth                      : 8 bits
Scan type                      : Progressive
Bits/(Pixel*Frame)             : 0.055
Stream size                    : 745 MiB (81%)
Title                          : GOPI SAHI
Writing library                : x264 core 157 r2935 545de2f

Audio #1
ID                             : 2
Format                         : AAC LC
Format/Info                    : Advanced Audio Codec Low Complexity
Codec ID                       : A_AAC-2
Duration                       : 1 h 55 min
Bit rate                       : 96.0 kb/s
Channel(s)                     : 2 channels
Channel layout                 : L R
Sampling rate                  : 48.0 kHz
Frame rate                     : 46.875 FPS (1024 SPF)
Compression mode               : Lossy
Delay relative to video        : 3 s 279 ms
Stream size                    : 79.9 MiB (9%)
Title                          : GOPI SAHI
Language                       : Hindi
Default                        : Yes
Forced                         : No

Audio #2
ID                             : 3
Format                         : AAC LC
Format/Info                    : Advanced Audio Codec Low Complexity
Codec ID                       : A_AAC-2
Duration                       : 1 h 55 min
Bit rate                       : 96.0 kb/s
Channel(s)                     : 2 channels
Channel layout                 : L R
Sampling rate                  : 48.0 kHz
Frame rate                     : 46.875 FPS (1024 SPF)
Compression mode               : Lossy
Delay relative to video        : -21 ms
Stream size                    : 79.9 MiB (9%)
Title                          : GOPI SAHI
Language                       : English
Default                        : No
Forced                         : No

Text #1
ID                             : 4
Format                         : PGS
Muxing mode                    : zlib
Codec ID                       : S_HDMV/PGS
Codec ID/Info                  : Picture based subtitle format used on BDs/HD-DVDs
Duration                       : 1 h 46 min
Bit rate                       : 50.3 kb/s
Count of elements              : 2928
Stream size                    : 38.2 MiB (4%)
Title                          : GOPI SAHI
Language                       : English
Default                        : No
Forced                         : No

Text #2
ID                             : 5
Format                         : PGS
Muxing mode                    : zlib
Codec ID                       : S_HDMV/PGS
Codec ID/Info                  : Picture based subtitle format used on BDs/HD-DVDs
Duration                       : 48 min 34 s
Bit rate                       : 68 b/s
Count of elements              : 6
Stream size                    : 24.5 KiB (0%)
Title                          : GOPI SAHI
Language                       : Hindi
Default                        : Yes
Forced                         : No