Tomorrow Never Dies 1997 x264 720p Esub BluRay Dual Audio English Hindi GOPI SAHI

Tomorrow Never Dies (1997)


James Bond sets out to stop a media mogul's plan to induce war between China and the U.K in order to obtain exclusive global media coverage.
EN

Director:

Roger Spottiswoode

Writer:

Bruce Feirstein
6.5/10

Directed byRoger Spottiswoode
Produced byMichael G. Wilson
Barbara Broccoli
Written byBruce Feirstein
Based onJames Bond
by Ian Fleming
Starring
Music byDavid Arnold
CinematographyRobert Elswit
Edited byMichel Arcand
Dominique Fortin
Production
company
Distributed byMGM Distribution Co. (United States)
United International Pictures (International)
Release date
  • 9 December 1997 (London, premiere)
  • 12 December 1997 (United Kingdom)
  • 19 December 1997 (United States)
Running time
119 minutes
CountryUnited Kingdom
United States
LanguageEnglish
Budget$110 million
Box office$333 million[1]



Tomorrow Never Dies 1997 GOPI SAHI

Format                         : Matroska
Format version                 : Version 4
File size                      : 941 MiB
Duration                       : 1 h 59 min
Overall bit rate               : 1 102 kb/s
Movie name                     : Tomorrow Never Dies 1997 GOPI SAHI
Encoded date                   : UTC 2020-09-17 04:01:53


Video
ID                             : 1
Format                         : AVC
Format/Info                    : Advanced Video Codec
Format profile                 : [email protected]
Format settings                : CABAC / 5 Ref Frames
Format settings, CABAC         : Yes
Format settings, Reference fra : 5 frames
Codec ID                       : V_MPEG4/ISO/AVC
Duration                       : 1 h 59 min
Bit rate                       : 899 kb/s
Width                          : 1 280 pixels
Height                         : 546 pixels
Display aspect ratio           : 2.35:1
Frame rate mode                : Constant
Frame rate                     : 23.976 (24000/1001) FPS
Color space                    : YUV
Chroma subsampling             : 4:2:0
Bit depth                      : 8 bits
Scan type                      : Progressive
Bits/(Pixel*Frame)             : 0.054
Stream size                    : 767 MiB (82%)
Title                          : GOPI SAHI
Writing library                : x264 core 157 r2935 545de2f

Audio #1
ID                             : 2
Format                         : AAC LC
Format/Info                    : Advanced Audio Codec Low Complexity
Codec ID                       : A_AAC-2
Duration                       : 1 h 59 min
Bit rate                       : 96.0 kb/s
Channel(s)                     : 2 channels
Channel layout                 : L R
Sampling rate                  : 48.0 kHz
Frame rate                     : 46.875 FPS (1024 SPF)
Compression mode               : Lossy
Delay relative to video        : -21 ms
Stream size                    : 82.1 MiB (9%)
Title                          : GOPI SAHI
Language                       : Hindi
Default                        : Yes
Forced                         : No

Audio #2
ID                             : 3
Format                         : AAC LC
Format/Info                    : Advanced Audio Codec Low Complexity
Codec ID                       : A_AAC-2
Duration                       : 1 h 59 min
Bit rate                       : 96.0 kb/s
Channel(s)                     : 2 channels
Channel layout                 : L R
Sampling rate                  : 48.0 kHz
Frame rate                     : 46.875 FPS (1024 SPF)
Compression mode               : Lossy
Delay relative to video        : -21 ms
Stream size                    : 82.3 MiB (9%)
Title                          : GOPI SAHI
Language                       : English
Default                        : No
Forced                         : No

Text
ID                             : 4
Format                         : PGS
Muxing mode                    : zlib
Codec ID                       : S_HDMV/PGS
Codec ID/Info                  : Picture based subtitle format used on BDs/HD-DVDs
Duration                       : 1 h 57 min
Bit rate                       : 28.7 kb/s
Count of elements              : 1870
Stream size                    : 24.2 MiB (3%)
Title                          : GOPI SAHI
Language                       : English
Default                        : Yes
Forced                         : Yes

Menu
00:00:00.000                   : :Opening Sequence
00:04:34.316                   : :One-Man Task Force
00:06:36.646                   : :Back Seat Driver
00:09:37.327                   : :Main Title
00:12:37.257                   : :H.M.S. Devonshire
00:15:01.401                   : :Attack of the Sea-Vac
00:20:09.875                   : :Tomorrow's Headlines
00:22:10.371                   : :A New Tongue for Bond
00:27:31.233                   : :Q's New "Gadget"
00:30:34.916                   : :The Banker
00:32:23.608                   : :Hamburg & Paris
00:36:29.521                   : :An Urgent Call
00:39:19.691                   : :On & Off the Air
00:42:09.777                   : :Paris' Yearning
00:47:14.290                   : :Investigations
00:50:22.770                   : :Pressing Engagement
00:53:23.701                   : :Doctor of Death
00:59:32.069                   : :Beamer Screamer
01:03:39.316                   : :Underwater Rendezvous
01:12:01.526                   : :Carver's New Headlines
01:15:09.839                   : :Torture Tools
01:16:43.349                   : :A Banner Fall
01:17:53.711                   : :Back Seat Driver II
01:24:22.432                   : :"I Work Alone"
01:26:15.587                   : :Stopping By
01:29:08.051                   : :Her Own "Q Branch"
01:31:17.222                   : :Finding the Stealth
01:34:20.989                   : :"Bond Is Dead"
01:38:35.660                   : :Back-Up Plans
01:43:46.178                   : :Stalking the Stealth
01:48:43.225                   : :Carving Carver
01:55:22.707                   : :End Credits