The World Is Not Enough 1999 x264 720p Esub BluRay Dual Audio English Hindi GOPI SAHI

The World Is Not Enough (1999)

James Bond uncovers a nuclear plot while protecting an oil heiress from her former kidnapper, an international terrorist who can't feel pain.
EN

Director:

Michael Apted

Writers:

Neal Purvis (story), Robert Wade (story) | 3 more credits »

6.4/10
185,456

Directed byMichael Apted
Produced byMichael G. Wilson
Barbara Broccoli
Screenplay byNeal Purvis
Robert Wade

Bruce Feirstein
Story byNeal Purvis
Robert Wade
Based onJames Bond
by Ian Fleming
Starring
Music byDavid Arnold
CinematographyAdrian Biddle
Edited byJim Clark
Production
company
Distributed byMGM Distribution Co. (United States)
United International Pictures (International)
Release date
  • 8 November 1999 (Los Angeles, premiere)
  • 19 November 1999 (United States)
  • 26 November 1999 (United Kingdom)
Running time
125 minutes
CountryUnited Kingdom
United States[1]
LanguageEnglish
Budget$135 million[2]
Box office$361.8 million[2]


The World Is Not Enough 1999 GOPI SAHI

Format                         : Matroska
Format version                 : Version 4
File size                      : 1 016 MiB
Duration                       : 2 h 8 min
Overall bit rate               : 1 107 kb/s
Movie name                     : The World Is Not Enough 1999 GOPI SAHI
Encoded date                   : UTC 2020-09-17 03:58:58

Video
ID                             : 1
Format                         : AVC
Format/Info                    : Advanced Video Codec
Format profile                 : [email protected]
Format settings                : CABAC / 5 Ref Frames
Format settings, CABAC         : Yes
Format settings, Reference fra : 5 frames
Codec ID                       : V_MPEG4/ISO/AVC
Duration                       : 2 h 8 min
Bit rate                       : 899 kb/s
Width                          : 1 280 pixels
Height                         : 544 pixels
Display aspect ratio           : 2.35:1
Frame rate mode                : Constant
Frame rate                     : 23.976 (24000/1001) FPS
Color space                    : YUV
Chroma subsampling             : 4:2:0
Bit depth                      : 8 bits
Scan type                      : Progressive
Bits/(Pixel*Frame)             : 0.054
Stream size                    : 825 MiB (81%)
Title                          : GOPI SAHI
Writing library                : x264 core 157 r2935 545de2f

Audio #1
ID                             : 2
Format                         : AAC LC
Format/Info                    : Advanced Audio Codec Low Complexity
Codec ID                       : A_AAC-2
Duration                       : 2 h 8 min
Bit rate                       : 96.0 kb/s
Channel(s)                     : 2 channels
Channel layout                 : L R
Sampling rate                  : 48.0 kHz
Frame rate                     : 46.875 FPS (1024 SPF)
Compression mode               : Lossy
Delay relative to video        : -21 ms
Stream size                    : 88.7 MiB (9%)
Title                          : GOPI SAHI
Language                       : Hindi
Default                        : Yes
Forced                         : No

Audio #2
ID                             : 3
Format                         : AAC LC
Format/Info                    : Advanced Audio Codec Low Complexity
Codec ID                       : A_AAC-2
Duration                       : 2 h 8 min
Bit rate                       : 96.0 kb/s
Channel(s)                     : 2 channels
Channel layout                 : L R
Sampling rate                  : 48.0 kHz
Frame rate                     : 46.875 FPS (1024 SPF)
Compression mode               : Lossy
Delay relative to video        : -21 ms
Stream size                    : 88.5 MiB (9%)
Title                          : GOPI SAHI
Language                       : English
Default                        : No
Forced                         : No

Text #1
ID                             : 4
Format                         : PGS
Muxing mode                    : zlib
Codec ID                       : S_HDMV/PGS
Codec ID/Info                  : Picture based subtitle format used on BDs/HD-DVDs
Duration                       : 2 h 3 min
Bit rate                       : 14.6 kb/s
Count of elements              : 2348
Stream size                    : 12.9 MiB (1%)
Title                          : GOPI SAHI
Language                       : Hindi
Default                        : Yes
Forced                         : Yes

Text #2
ID                             : 5
Format                         : PGS
Muxing mode                    : zlib
Codec ID                       : S_HDMV/PGS
Codec ID/Info                  : Picture based subtitle format used on BDs/HD-DVDs
Duration                       : 2 h 3 min
Bit rate                       : 24.4 kb/s
Count of elements              : 1938
Stream size                    : 21.5 MiB (2%)
Title                          : GOPI SAHI
Language                       : English
Default                        : No
Forced                         : No

Menu
00:00:00.000                   : :Logos / Slain in Spain
00:04:32.272                   : :Exploding Currency
00:07:27.781                   : :Blazing Boat Chase
00:14:17.357                   : :Title / Opening Credits
00:17:07.109                   : :Playing Doctor
00:20:02.910                   : :Q Bids Farewell
00:22:54.164                   : :A Terrorist's Message
00:26:14.073                   : :A Bullet in the Brain
00:28:33.212                   : :Bond Meets Elektra
00:33:54.074                   : :Skiing Under Fire
00:40:18.666                   : :"Stay with Me"
00:42:22.707                   : :"Shaken Not Stirred"
00:48:34.286                   : :"The Devil's Breath"
00:50:35.658                   : :First Sex Then Spying
00:56:32.848                   : :Dr. Christmas Jones
00:59:31.401                   : :"I'm Already Dead!"
01:04:18.605                   : :Sealed in Explosion
01:08:49.167                   : :"You Used Me!"
01:12:30.555                   : :Diffusing a Pipe Bomb
01:18:34.126                   : :A Slap in the Face
01:20:00.129                   : :"What Do We Do Now?"
01:21:55.911                   : :"Touch Your Destiny"
01:25:25.037                   : :"I Feel Nothing!"
01:27:27.784                   : :What Do You Know?"
01:29:38.123                   : :Cutting Edge / Caviar
01:36:26.614                   : :"They Want the Sub!"
01:42:38.486                   : :"A Power Over Men"
01:48:46.145                   : :"Call Him Off!"
01:50:31.041                   : :Diving for the Girl
01:55:55.949                   : :Stopping a Madman
02:02:34.347                   : :"Christmas in Turkey"
02:04:15.949                   : :End Credits