The Wailing 2016 x264 720p Esub BluRay Dual Audio English Hindi GOPI SAHI

The Wailing (2016)


Gokseong (original title)
TV-MA | | Horror, Mystery, Thriller | 3 June 2016 (USA)

Soon after a stranger arrives in a little village, a mysterious sickness starts spreading. A policeman, drawn into the incident, is forced to solve the mystery in order to save his daughter.
EN

Director:

Hong-jin Na

Writers:

Hong-jin Na (screenplay by), Hong-jin Na
7.4/10


Hangul곡성
Hanja哭聲
Revised RomanizationGokseong
McCune–ReischauerKoksŏng
Directed byNa Hong-jin
Produced by
  • Suh Dong-hyun
  • Kim Ho-sung[1]
Written byNa Hong-jin[1]
StarringKwak Do-won
Hwang Jung-min
Chun Woo-hee
Music byJang Young-gyu
Dalpalan[1]
CinematographyHong Kyung-pyo[1]
Edited byKim Sun-min[1]
Production
company
Side Mirror
Fox International Production Korea
Distributed by20th Century Fox Korea
Release date
  • May 12, 2016 (South Korea)
Running time
156 minutes[1]
CountrySouth Korea[1]
LanguageKorean
Japanese
BudgetUS$8 million
Box officeUS$51.3 million[2]





The Wailing 2016 x264 720p Esub BluRay Dual Audio English Hindi GOPI SAHI

Format                         : Matroska
Format version                 : Version 4
File size                      : 1.14 GiB
Duration                       : 2 h 28 min
Overall bit rate               : 1 094 kb/s
Movie name                     : The Wailing 2016 GOPI SAHI
Encoded date                   : UTC 2020-09-23 05:20:34

Video
ID                             : 1
Format                         : AVC
Format/Info                    : Advanced Video Codec
Format profile                 : [email protected]
Format settings                : CABAC / 5 Ref Frames
Format settings, CABAC         : Yes
Format settings, Reference fra : 5 frames
Codec ID                       : V_MPEG4/ISO/AVC
Duration                       : 2 h 28 min
Bit rate                       : 899 kb/s
Width                          : 1 280 pixels
Height                         : 534 pixels
Display aspect ratio           : 2.40:1
Frame rate mode                : Constant
Frame rate                     : 25.000 FPS
Color space                    : YUV
Chroma subsampling             : 4:2:0
Bit depth                      : 8 bits
Scan type                      : Progressive
Bits/(Pixel*Frame)             : 0.053
Stream size                    : 956 MiB (82%)
Title                          : GOPI SAHI
Writing library                : x264 core 157 r2935 545de2f

Audio #1
ID                             : 2
Format                         : AAC LC
Format/Info                    : Advanced Audio Codec Low Complexity
Codec ID                       : A_AAC-2
Duration                       : 2 h 28 min
Bit rate                       : 96.0 kb/s
Channel(s)                     : 2 channels
Channel layout                 : L R
Sampling rate                  : 48.0 kHz
Frame rate                     : 46.875 FPS (1024 SPF)
Compression mode               : Lossy
Delay relative to video        : -21 ms
Stream size                    : 102 MiB (9%)
Title                          : GOPI SAHI
Language                       : Hindi
Default                        : Yes
Forced                         : No

Audio #2
ID                             : 3
Format                         : AAC LC
Format/Info                    : Advanced Audio Codec Low Complexity
Codec ID                       : A_AAC-2
Duration                       : 2 h 28 min
Bit rate                       : 96.0 kb/s
Channel(s)                     : 2 channels
Channel layout                 : L R
Sampling rate                  : 48.0 kHz
Frame rate                     : 46.875 FPS (1024 SPF)
Compression mode               : Lossy
Delay relative to video        : -5 ms
Stream size                    : 103 MiB (9%)
Title                          : GOPI SAHI
Language                       : English
Default                        : No
Forced                         : No

Text
ID                             : 4
Format                         : UTF-8
Codec ID                       : S_TEXT/UTF8
Codec ID/Info                  : UTF-8 Plain Text
Duration                       : 2 h 23 min
Bit rate                       : 30 b/s
Count of elements              : 1328
Stream size                    : 32.0 KiB (0%)
Title                          : GOPI SAHI
Language                       : English
Default                        : Yes
Forced                         : No