The Ugly Truth 2009 x264 720p Esub BluRay Dual Audio English Hindi GOPI SAHI

The Ugly Truth (2009)

An uptight television producer takes control of a morning show segment on modern relationships hosted by a misogynistic man.
EN



Director:

Robert Luketic

Writers:

Nicole Eastman (screenplay), Karen McCullah (screenplay) | 2 more credits »

6.4/10
201,016

Directed byRobert Luketic
Produced byTom Rosenberg
Gary Lucchesi
Screenplay byNicole Eastman
Karen McCullah Lutz
Kirsten Smith
Story byNicole Eastman
StarringKatherine Heigl
Gerard Butler
Eric Winter
John Michael Higgins
Nick Searcy
Kevin Connolly
Cheryl Hines
Music byAaron Zigman
CinematographyRussell Carpenter
Edited byLisa Zeno Churgin
Production
company
Distributed bySony Pictures Releasing
Release date
  • July 24, 2009
Running time
96 minutes
CountryUnited States
LanguageEnglish
Budget$38 million[1]
Box office$205.3 million[1]




The Ugly Truth 2009 x264 720p Esub BluRay Dual Audio English Hindi GOPI SAHI

Format                         : Matroska
Format version                 : Version 4
File size                      : 780 MiB
Duration                       : 1 h 35 min
Overall bit rate               : 1 137 kb/s
Movie name                     : The Ugly Truth 2009 GOPI SAHI
Encoded date                   : UTC 2020-09-17 04:23:37
Writing application            : mkvmerge v46.0.0 ('No Deeper Escape') 32-bit
Writing library                : libebml v1.3.10 + libmatroska v1.5.2
Attachments                    : T.U.T.jpg

Video
ID                             : 1
Format                         : AVC
Format/Info                    : Advanced Video Codec
Format profile                 : [email protected]
Format settings                : CABAC / 5 Ref Frames
Format settings, CABAC         : Yes
Format settings, Reference fra : 5 frames
Codec ID                       : V_MPEG4/ISO/AVC
Duration                       : 1 h 35 min
Bit rate                       : 899 kb/s
Width                          : 1 280 pixels
Height                         : 534 pixels
Display aspect ratio           : 2.40:1
Frame rate mode                : Constant
Frame rate                     : 23.976 (24000/1001) FPS
Color space                    : YUV
Chroma subsampling             : 4:2:0
Bit depth                      : 8 bits
Scan type                      : Progressive
Bits/(Pixel*Frame)             : 0.055
Stream size                    : 617 MiB (79%)
Title                          : GOPI SAHI
Writing library                : x264 core 157 r2935 545de2f

Audio #1
ID                             : 2
Format                         : AAC LC
Format/Info                    : Advanced Audio Codec Low Complexity
Codec ID                       : A_AAC-2
Duration                       : 1 h 35 min
Bit rate                       : 96.0 kb/s
Channel(s)                     : 2 channels
Channel layout                 : L R
Sampling rate                  : 48.0 kHz
Frame rate                     : 46.875 FPS (1024 SPF)
Compression mode               : Lossy
Delay relative to video        : -21 ms
Stream size                    : 66.2 MiB (8%)
Title                          : GOPI SAHI
Language                       : Hindi
Default                        : Yes
Forced                         : No

Audio #2
ID                             : 3
Format                         : AAC LC
Format/Info                    : Advanced Audio Codec Low Complexity
Codec ID                       : A_AAC-2
Duration                       : 1 h 35 min
Bit rate                       : 96.0 kb/s
Channel(s)                     : 2 channels
Channel layout                 : L R
Sampling rate                  : 48.0 kHz
Frame rate                     : 46.875 FPS (1024 SPF)
Compression mode               : Lossy
Delay relative to video        : -21 ms
Stream size                    : 66.2 MiB (8%)
Title                          : GOPI SAHI
Language                       : English
Default                        : No
Forced                         : No

Text #1
ID                             : 4
Format                         : PGS
Muxing mode                    : zlib
Codec ID                       : S_HDMV/PGS
Codec ID/Info                  : Picture based subtitle format used on BDs/HD-DVDs
Duration                       : 1 h 30 min
Bit rate                       : 47.2 kb/s
Count of elements              : 3046
Stream size                    : 30.5 MiB (4%)
Title                          : GOPI SAHI
Language                       : Hindi
Default                        : Yes
Forced                         : Yes

Text #2
ID                             : 5
Format                         : PGS
Muxing mode                    : zlib
Codec ID                       : S_HDMV/PGS
Codec ID/Info                  : Picture based subtitle format used on BDs/HD-DVDs
Duration                       : 1 h 30 min
Bit rate                       : 51.2 kb/s
Count of elements              : 3024
Stream size                    : 33.1 MiB (4%)
Title                          : GOPI SAHI
Language                       : English
Default                        : No
Forced                         : No

Menu
00:00:00.000                   : :Chapter 1
00:06:24.593                   : :Chapter 2
00:12:32.210                   : :Chapter 3
00:15:56.330                   : :Chapter 4
00:20:12.420                   : :Chapter 5
00:26:04.646                   : :Chapter 6
00:32:02.879                   : :Chapter 7
00:36:48.873                   : :Chapter 8
00:41:46.129                   : :Chapter 9
00:49:25.004                   : :Chapter 10
00:56:43.483                   : :Chapter 11
01:02:33.375                   : :Chapter 12
01:08:01.661                   : :Chapter 13
01:12:52.827                   : :Chapter 14
01:18:49.683                   : :Chapter 15
01:23:04.229                   : :Chapter 16