The Transporter 2 2005 x264 720p Esub BluRay Dual Audio English Hindi GOPI SAHI

Transporter 2 (2005)


 
Transporter Frank Martin, surfaces in Miami, Florida and is implicated in the kidnapping of the young son of a powerful USA official.
EN

Director:

Louis Leterrier

Writers:

Luc Besson (characters), Robert Mark Kamen (characters) | 2 more credits »

6.3/10
189,054

Directed byLouis Leterrier
Produced by
Written by
Based onCharacters
by Luc Besson
Robert Mark Kamen
Starring
Music byAlexandre Azaria
CinematographyMitchell Amundsen
Edited by
Production
company
Distributed byEuropaCorp Distribution
Release date
  • 3 August 2005 (France)
Running time
87 minutes[1]
CountryFrance[2]
LanguageEnglish
Budget€24.6 million[3][4]
($32 million)
Box office$89.1 million [4]



The Transporter 2 2005 GOPISAHI

Format                         : Matroska
Format version                 : Version 4
File size                      : 771 MiB
Duration                       : 1 h 28 min
Overall bit rate               : 1 222 kb/s
Movie name                     : The Transporter 2 2005 GOPISAHI
Encoded date                   : UTC 2019-10-13 15:14:08

Video
ID                             : 1
Format                         : AVC
Format/Info                    : Advanced Video Codec
Format profile                 : [email protected]
Format settings                : CABAC / 12 Ref Frames
Format settings, CABAC         : Yes
Format settings, Reference fra : 12 frames
Codec ID                       : V_MPEG4/ISO/AVC
Duration                       : 1 h 28 min
Bit rate                       : 899 kb/s
Width                          : 1 280 pixels
Height                         : 544 pixels
Display aspect ratio           : 2.35:1
Frame rate mode                : Constant
Frame rate                     : 23.976 (24000/1001) FPS
Color space                    : YUV
Chroma subsampling             : 4:2:0
Bit depth                      : 8 bits
Scan type                      : Progressive
Bits/(Pixel*Frame)             : 0.054
Stream size                    : 567 MiB (73%)
Title                          : GOPISAHI
Writing library                : x264 core 157 r2935 545de2f

Audio #1
ID                             : 2
Format                         : AAC LC
Format/Info                    : Advanced Audio Codec Low Complexity
Codec ID                       : A_AAC-2
Duration                       : 1 h 28 min
Bit rate                       : 129 kb/s
Channel(s)                     : 2 channels
Channel layout                 : L R
Sampling rate                  : 48.0 kHz
Frame rate                     : 46.875 FPS (1024 SPF)
Compression mode               : Lossy
Delay relative to video        : 829 ms
Stream size                    : 81.2 MiB (11%)
Title                          : GOPISAHI
Language                       : Hindi
Default                        : Yes
Forced                         : No

Audio #2
ID                             : 3
Format                         : AAC LC
Format/Info                    : Advanced Audio Codec Low Complexity
Codec ID                       : A_AAC-2
Duration                       : 1 h 28 min
Bit rate                       : 192 kb/s
Channel(s)                     : 6 channels
Channel layout                 : C L R Ls Rs LFE
Sampling rate                  : 48.0 kHz
Frame rate                     : 46.875 FPS (1024 SPF)
Compression mode               : Lossy
Delay relative to video        : -21 ms
Stream size                    : 121 MiB (16%)
Title                          : GOPISAHI
Language                       : English
Default                        : No
Forced                         : No

Text
ID                             : 4
Format                         : UTF-8
Codec ID                       : S_TEXT/UTF8
Codec ID/Info                  : UTF-8 Plain Text
Duration                       : 1 h 19 min
Bit rate                       : 45 b/s
Count of elements              : 884
Stream size                    : 26.5 KiB (0%)
Title                          : GOPISAHI
Language                       : English
Default                        : Yes
Forced                         : No