The Night Comes for Us 2018 x264 720p Esub BluRay Dual Audio Hindi Indonesian GOPI SAHI

The Night Comes for Us (2018)

TV-MA | | Action, Thriller | 19 October 2018 (USA)

Ito, a gangland enforcer, caught amidst a treacherous and violent insurrection within his Triad crime family upon his return home from a stint abroad.
EN

Director:

Timo Tjahjanto

Writer:

Timo Tjahjanto
7.0/10

The Night Comes for Us 2018 x264 720p Esub BluRay Dual Audio Hindi Indonesian GOPI SAHI

Format                         : Matroska
Format version                 : Version 4
File size                      : 951 MiB
Duration                       : 2 h 0 min
Overall bit rate               : 1 100 kb/s
Movie name                     : The Night Comes for Us 2018  Hindi Indonesian GOPI SAHI
Encoded date                   : UTC 2020-09-06 04:28:56

Video
ID                             : 1
Format                         : AVC
Format/Info                    : Advanced Video Codec
Format profile                 : [email protected]
Format settings                : CABAC / 5 Ref Frames
Format settings, CABAC         : Yes
Format settings, Reference fra : 5 frames
Codec ID                       : V_MPEG4/ISO/AVC
Duration                       : 2 h 0 min
Bit rate                       : 899 kb/s
Width                          : 1 280 pixels
Height                         : 536 pixels
Display aspect ratio           : 2.40:1
Frame rate mode                : Constant
Frame rate                     : 23.976 (24000/1001) FPS
Color space                    : YUV
Chroma subsampling             : 4:2:0
Bit depth                      : 8 bits
Scan type                      : Progressive
Bits/(Pixel*Frame)             : 0.055
Stream size                    : 777 MiB (82%)
Title                          : GOPI SAHI
Writing library                : x264 core 157 r2935 545de2f

Audio #1
ID                             : 2
Format                         : AAC LC
Format/Info                    : Advanced Audio Codec Low Complexity
Codec ID                       : A_AAC-2
Duration                       : 2 h 0 min
Bit rate                       : 96.0 kb/s
Channel(s)                     : 2 channels
Channel layout                 : L R
Sampling rate                  : 48.0 kHz
Frame rate                     : 46.875 FPS (1024 SPF)
Compression mode               : Lossy
Delay relative to video        : 9 ms
Stream size                    : 83.3 MiB (9%)
Title                          : GOPI SAHI
Language                       : Hindi
Default                        : Yes
Forced                         : No

Audio #2
ID                             : 3
Format                         : AAC LC
Format/Info                    : Advanced Audio Codec Low Complexity
Codec ID                       : A_AAC-2
Duration                       : 2 h 0 min
Bit rate                       : 96.0 kb/s
Channel(s)                     : 2 channels
Channel layout                 : L R
Sampling rate                  : 48.0 kHz
Frame rate                     : 46.875 FPS (1024 SPF)
Compression mode               : Lossy
Delay relative to video        : -21 ms
Stream size                    : 83.2 MiB (9%)
Title                          : GOPI SAHI
Default                        : No
Forced                         : No

Text
ID                             : 4
Format                         : PGS
Muxing mode                    : zlib
Codec ID                       : S_HDMV/PGS
Codec ID/Info                  : Picture based subtitle format used on BDs/HD-DVDs
Duration                       : 1 h 48 min
Bit rate                       : 15.0 kb/s
Count of elements              : 898
Stream size                    : 11.7 MiB (1%)
Title                          : GOPI SAHI
Language                       : English
Default                        : Yes
Forced                         : Yes

Menu
00:00:00.000                   : :Chapter 1
00:15:06.489                   : :Chapter 2
00:30:12.894                   : :Chapter 3
00:45:20.134                   : :Chapter 4
01:00:27.582                   : :Chapter 5
01:15:34.613                   : :Chapter 6
01:30:40.352                   : :Chapter 7
01:45:52.763                   : :Chapter 8