The Maze Runner 2014 x264 720p Esub BluRay Dual Audio English Hindi GOPI SAHI

The Maze Runner (2014)

Thomas is deposited in a community of boys after his memory is erased, soon learning they're all trapped in a maze that will require him to join forces with fellow "runners" for a shot at escape.
EN

Director:

Wes Ball

Writers:

Noah Oppenheim (screenplay by), Grant Pierce Myers (screenplay by) | 2 more credits »

6.8/10


Directed byWes Ball
Produced by
Screenplay by
Based onThe Maze Runner
by James Dashner
Starring
Music byJohn Paesano
CinematographyEnrique Chediak
Edited byDan Zimmerman
Production
company
Distributed by20th Century Fox
Release date
  • September 19, 2014 (United States)
Running time
113 minutes
CountryUnited States
LanguageEnglish
Budget$34 million[1][2]
Box office$348.3 million[1]






The Maze Runner 2014 GOPI SAHI


Format                         : Matroska
Format version                 : Version 4
File size                      : 896 MiB
Duration                       : 1 h 53 min
Overall bit rate               : 1 105 kb/s
Movie name                     : The Maze Runner 2014 GOPI SAHI
Encoded date                   : UTC 2020-09-14 02:40:29
Writing application            : mkvmerge v46.0.0 ('No Deeper Escape') 32-bit
Writing library                : libebml v1.3.10 + libmatroska v1.5.2

Video
ID                             : 1
Format                         : AVC
Format/Info                    : Advanced Video Codec
Format profile                 : [email protected]
Format settings                : CABAC / 5 Ref Frames
Format settings, CABAC         : Yes
Format settings, Reference fra : 5 frames
Codec ID                       : V_MPEG4/ISO/AVC
Duration                       : 1 h 53 min
Bit rate                       : 899 kb/s
Width                          : 1 280 pixels
Height                         : 534 pixels
Display aspect ratio           : 2.40:1
Frame rate mode                : Constant
Frame rate                     : 23.976 (24000/1001) FPS
Color space                    : YUV
Chroma subsampling             : 4:2:0
Bit depth                      : 8 bits
Scan type                      : Progressive
Bits/(Pixel*Frame)             : 0.055
Stream size                    : 729 MiB (81%)
Title                          : GOPI SAHI
Writing library                : x264 core 157 r2935 545de2f

Audio #1
ID                             : 2
Format                         : AAC LC
Format/Info                    : Advanced Audio Codec Low Complexity
Codec ID                       : A_AAC-2
Duration                       : 1 h 53 min
Bit rate                       : 96.0 kb/s
Channel(s)                     : 2 channels
Channel layout                 : L R
Sampling rate                  : 48.0 kHz
Frame rate                     : 46.875 FPS (1024 SPF)
Compression mode               : Lossy
Delay relative to video        : -21 ms
Stream size                    : 78.3 MiB (9%)
Title                          : GOPI SAHI
Language                       : Hindi
Default                        : Yes
Forced                         : No

Audio #2
ID                             : 3
Format                         : AAC LC
Format/Info                    : Advanced Audio Codec Low Complexity
Codec ID                       : A_AAC-2
Duration                       : 1 h 53 min
Bit rate                       : 96.0 kb/s
Channel(s)                     : 2 channels
Channel layout                 : L R
Sampling rate                  : 48.0 kHz
Frame rate                     : 46.875 FPS (1024 SPF)
Compression mode               : Lossy
Delay relative to video        : -21 ms
Stream size                    : 78.2 MiB (9%)
Title                          : GOPI SAHI
Language                       : English
Default                        : No
Forced                         : No

Text
ID                             : 4
Format                         : PGS
Muxing mode                    : zlib
Codec ID                       : S_HDMV/PGS
Codec ID/Info                  : Picture based subtitle format used on BDs/HD-DVDs
Duration                       : 1 h 45 min
Bit rate                       : 33.5 kb/s
Count of elements              : 3058
Stream size                    : 25.3 MiB (3%)
Title                          : GOPI SAHI
Language                       : English
Default                        : No
Forced                         : No

Menu
00:00:00.000                   : :Chapter 1
00:03:12.651                   : :Chapter 2
00:07:16.144                   : :Chapter 3
00:10:25.250                   : :Chapter 4
00:14:15.772                   : :Chapter 5
00:17:21.707                   : :Chapter 6
00:19:33.339                   : :Chapter 7
00:23:20.816                   : :Chapter 8
00:24:36.308                   : :Chapter 9
00:28:13.192                   : :Chapter 10
00:31:26.343                   : :Chapter 11
00:34:12.008                   : :Chapter 12
00:37:11.813                   : :Chapter 13
00:41:01.292                   : :Chapter 14
00:42:16.409                   : :Chapter 15
00:45:47.787                   : :Chapter 16
00:48:31.742                   : :Chapter 17
00:52:57.800                   : :Chapter 18
00:55:21.735                   : :Chapter 19
00:57:58.642                   : :Chapter 20
00:59:31.151                   : :Chapter 21
01:01:35.275                   : :Chapter 22
01:05:13.910                   : :Chapter 23
01:08:42.410                   : :Chapter 24
01:12:14.121                   : :Chapter 25
01:14:23.209                   : :Chapter 26
01:20:28.240                   : :Chapter 27
01:22:25.399                   : :Chapter 28
01:25:38.008                   : :Chapter 29
01:29:41.960                   : :Chapter 30
01:33:49.624                   : :Chapter 31
01:36:43.089                   : :Chapter 32
01:39:33.426                   : :Chapter 33
01:43:05.763                   : :Chapter 34
01:45:08.219                   : :Chapter 35
01:46:12.658                   : :Chapter 36