The Marine 2006 X264 720P Esub Bluray Dual Audio English Hindi GOPI SAHI

The Marine (2006)

PG-13 | | Action, Comedy, Drama | 13 October 2006 (USA)


A group of diamond thieves on the run kidnap the wife of a recently discharged marine who goes on a chase through the South Carolinian wilderness to retrieve her.
EN

Director:

John Bonito

Writers:

Michelle Gallagher (story) (as Michell Gallagher), Michelle Gallagher (screenplay) (as Michell Gallagher) | 1 more credit »

4.7/10
31,990

Directed byJohn Bonito
Produced by
  • Joel Simon
  • Kathryn Sommer-Parry
  • Jonathan Winfrey
Screenplay by
Story byMichelle Gallagher
Starring
Music byDon Davis
CinematographyDavid Eggby
Edited byDallas Puett
Production
company
Distributed by20th Century Fox
Release date
  • October 13, 2006
Running time
91 minutes
CountryUnited States
LanguageEnglish
Budget$15 million[1]
Box office$22.2 million[1]

The Marine 2006 x264 720p Esub BluRay Dual Audio English Hindi GOPI SAHI

Format                         : Matroska
Format version                 : Version 4
File size                      : 727 MiB
Duration                       : 1 h 31 min
Overall bit rate               : 1 109 kb/s
Movie name                     : The Marine 2006 GOPI SAHI
Encoded date                   : UTC 2020-08-31 06:48:55
Writing application            : mkvmerge v46.0.0 ('No Deeper Escape') 32-bit
Writing library                : libebml v1.3.10 + libmatroska v1.5.2
Attachments                    : Hammer Logo.jpg

Video
ID                             : 1
Format                         : AVC
Format/Info                    : Advanced Video Codec
Format profile                 : [email protected]
Format settings                : CABAC / 5 Ref Frames
Format settings, CABAC         : Yes
Format settings, Reference fra : 5 frames
Codec ID                       : V_MPEG4/ISO/AVC
Duration                       : 1 h 31 min
Bit rate                       : 899 kb/s
Width                          : 1 280 pixels
Height                         : 694 pixels
Display aspect ratio           : 1.85:1
Frame rate mode                : Constant
Frame rate                     : 23.976 (24000/1001) FPS
Color space                    : YUV
Chroma subsampling             : 4:2:0
Bit depth                      : 8 bits
Scan type                      : Progressive
Bits/(Pixel*Frame)             : 0.042
Stream size                    : 589 MiB (81%)
Title                          : GOPI SAHI
Writing library                : x264 core 157 r2935 545de2f

Audio #1
ID                             : 2
Format                         : AAC LC
Format/Info                    : Advanced Audio Codec Low Complexity
Codec ID                       : A_AAC-2
Duration                       : 1 h 31 min
Bit rate                       : 96.0 kb/s
Channel(s)                     : 2 channels
Channel layout                 : L R
Sampling rate                  : 48.0 kHz
Frame rate                     : 46.875 FPS (1024 SPF)
Compression mode               : Lossy
Delay relative to video        : -21 ms
Stream size                    : 63.3 MiB (9%)
Title                          : GOPI SAHI
Language                       : Hindi
Default                        : Yes
Forced                         : No

Audio #2
ID                             : 3
Format                         : AAC LC
Format/Info                    : Advanced Audio Codec Low Complexity
Codec ID                       : A_AAC-2
Duration                       : 1 h 31 min
Bit rate                       : 96.0 kb/s
Channel(s)                     : 2 channels
Channel layout                 : L R
Sampling rate                  : 48.0 kHz
Frame rate                     : 46.875 FPS (1024 SPF)
Compression mode               : Lossy
Delay relative to video        : -21 ms
Stream size                    : 63.2 MiB (9%)
Title                          : GOPI SAHI
Language                       : English
Default                        : No
Forced                         : No

Text
ID                             : 4
Format                         : PGS
Muxing mode                    : zlib
Codec ID                       : S_HDMV/PGS
Codec ID/Info                  : Picture based subtitle format used on BDs/HD-DVDs
Duration                       : 1 h 22 min
Bit rate                       : 40.3 kb/s
Count of elements              : 1572
Stream size                    : 23.9 MiB (3%)
Title                          : GOPI SAHI
Language                       : English
Default                        : Yes
Forced                         : No



DWONLOAD LINKS