The Least of These: The Graham Staines Story 2019 x264 720p Hindi GOPI SAHI

 

The Least of These: The Graham Staines Story (2019)

PG-13 | | Drama | 29 March 2019 (India)

In India, a journalist investigates whether or not an Australian missionary is performing illegal conversions on the local townspeople.
EN

Director:

Aneesh Daniel

Writer:

Andrew E. Matthews (as Andrew Matthews)

6.3/10
740

Directed byAneesh Daniel
Written byAndrew Matthews
Based onThe life of Graham Staines
Starring
Production
company
Distributed bySkypass entertainment Inc.
Release date
  • 1 February 2019 (USA)
  • 29 March 2019 (India)[1]
Running time
112 minutes
CountryUnited States
LanguageEnglish
Box office$695,164[2]

The Least of These The Graham Staines Story 2019 x264 720p Hindi GOPI SAHI
Format                         : Matroska
Format version                 : Version 4
File size                      : 774 MiB
Duration                       : 1 h 48 min
Overall bit rate               : 996 kb/s
Movie name                     : Graham Staines Ek Ankahi Sachai 2020 GOPI SAHI
Encoded date                   : UTC 2020-09-03 15:23:05
Writing application            : mkvmerge v46.0.0 ('No Deeper Escape') 32-bit
Writing library                : libebml v1.3.10 + libmatroska v1.5.2

Video
ID                             : 1
Format                         : AVC
Format/Info                    : Advanced Video Codec
Format profile                 : [email protected]
Format settings                : CABAC / 5 Ref Frames
Format settings, CABAC         : Yes
Format settings, Reference fra : 5 frames
Codec ID                       : V_MPEG4/ISO/AVC
Duration                       : 1 h 48 min
Bit rate                       : 899 kb/s
Width                          : 1 280 pixels
Height                         : 536 pixels
Display aspect ratio           : 2.40:1
Frame rate mode                : Constant
Frame rate                     : 25.000 FPS
Color space                    : YUV
Chroma subsampling             : 4:2:0
Bit depth                      : 8 bits
Scan type                      : Progressive
Bits/(Pixel*Frame)             : 0.052
Stream size                    : 698 MiB (90%)
Title                          : GOPI SAHI
Writing library                : x264 core 157 r2935 545de2f

Audio
ID                             : 2
Format                         : AAC LC
Format/Info                    : Advanced Audio Codec Low Complexity
Codec ID                       : A_AAC-2
Duration                       : 1 h 48 min
Bit rate                       : 96.0 kb/s
Channel(s)                     : 2 channels
Channel layout                 : L R
Sampling rate                  : 48.0 kHz
Frame rate                     : 46.875 FPS (1024 SPF)
Compression mode               : Lossy
Delay relative to video        : -101 ms
Stream size                    : 73.9 MiB (10%)
Title                          : GOPI SAHI
Language                       : Hindi
Default                        : Yes
Forced                         : No




 DWONLOAD LINKS

MAGNET

TORRENT

MULTIUP

ANONFILES

BAYFILES

DWONLOAD AUTO START IN 20 SEC WAIT

DWONLOAD AUTO START IN 20 SEC WAIT

DWONLOAD AUTO START IN 20 SEC WAIT

GDRIVE

UPLOADFILES

MEDIAFIRE

USAUPLOAD