The Last House on the Left 2009 TC x264 720p Esub BluRay Dual Audio English Hindi GOPI SAHI

The Last House on the Left (2009)


After kidnapping and brutally assaulting two young women, a gang unknowingly finds refuge at a vacation home belonging to the parents of one of the victims: a mother and father who devise an increasingly gruesome series of revenge tactics.
EN

Director:

Dennis Iliadis

Writers:

Adam Alleca (screenplay), Carl Ellsworth (screenplay) | 1 more credit »

6.5/10


Directed byDennis Iliadis
Produced by
Screenplay by
Based onThe Last House on the Left
by Wes Craven
Starring
Music byJohn Murphy
CinematographySharone Meir
Edited byPeter McNulty
Production
company
Distributed byRogue Pictures
Release date
  • March 13, 2009
Running time
100 minutes
CountryUnited States
LanguageEnglish
Budget$15 million[1]
Box office$45.2 million[2]

The Last House on the Left 2009 TC x264 720p Esub BluRay Dual Audio English Hindi GOPI SAHI

Format                         : Matroska
Format version                 : Version 4
File size                      : 866 MiB
Duration                       : 1 h 49 min
Overall bit rate               : 1 102 kb/s
Movie name                     : The Last House on the Left 2009 TC GOPI SAHI
Encoded date                   : UTC 2020-09-22 22:21:32

Video
ID                             : 1
Format                         : AVC
Format/Info                    : Advanced Video Codec
Format profile                 : [email protected]
Format settings                : CABAC / 5 Ref Frames
Format settings, CABAC         : Yes
Format settings, Reference fra : 5 frames
Codec ID                       : V_MPEG4/ISO/AVC
Duration                       : 1 h 49 min
Bit rate                       : 899 kb/s
Width                          : 1 280 pixels
Height                         : 694 pixels
Display aspect ratio           : 1.85:1
Frame rate mode                : Constant
Frame rate                     : 23.976 (24000/1001) FPS
Color space                    : YUV
Chroma subsampling             : 4:2:0
Bit depth                      : 8 bits
Scan type                      : Progressive
Bits/(Pixel*Frame)             : 0.042
Stream size                    : 706 MiB (82%)
Writing library                : x264 core 157 r2935 545de2f

Audio #1
ID                             : 2
Format                         : AAC LC
Format/Info                    : Advanced Audio Codec Low Complexity
Codec ID                       : A_AAC-2
Duration                       : 1 h 49 min
Bit rate                       : 96.0 kb/s
Channel(s)                     : 2 channels
Channel layout                 : L R
Sampling rate                  : 48.0 kHz
Frame rate                     : 46.875 FPS (1024 SPF)
Compression mode               : Lossy
Delay relative to video        : -21 ms
Stream size                    : 75.9 MiB (9%)
Title                          : GOPI SAHI
Language                       : Hindi
Default                        : Yes
Forced                         : No

Audio #2
ID                             : 3
Format                         : AAC LC
Format/Info                    : Advanced Audio Codec Low Complexity
Codec ID                       : A_AAC-2
Duration                       : 1 h 49 min
Bit rate                       : 96.0 kb/s
Channel(s)                     : 2 channels
Channel layout                 : L R
Sampling rate                  : 48.0 kHz
Frame rate                     : 46.875 FPS (1024 SPF)
Compression mode               : Lossy
Delay relative to video        : -21 ms
Stream size                    : 75.7 MiB (9%)
Title                          : GOPI SAHI
Language                       : English
Default                        : No
Forced                         : No

Text
ID                             : 4
Format                         : PGS
Muxing mode                    : zlib
Codec ID                       : S_HDMV/PGS
Codec ID/Info                  : Picture based subtitle format used on BDs/HD-DVDs
Duration                       : 1 h 40 min
Bit rate                       : 25.8 kb/s
Count of elements              : 1983
Stream size                    : 18.6 MiB (2%)
Title                          : GOPI SAHI
Language                       : English
Default                        : Yes
Forced                         : Yes

Menu
00:00:00.000                   : :Chapter 1
00:05:06.097                   : :Chapter 2
00:10:42.267                   : :Chapter 3
00:15:57.957                   : :Chapter 4
00:22:17.294                   : :Chapter 5
00:28:34.254                   : :Chapter 6
00:32:37.122                   : :Chapter 7
00:37:05.724                   : :Chapter 8
00:44:04.684                   : :Chapter 9
00:48:02.588                   : :Chapter 10
00:55:52.474                   : :Chapter 11
01:00:24.121                   : :Chapter 12
01:04:03.506                   : :Chapter 13
01:10:16.045                   : :Chapter 14
01:15:44.165                   : :Chapter 15
01:22:13.095                   : :Chapter 16
01:26:35.190                   : :Chapter 17
01:30:43.980                   : :Chapter 18
01:35:47.116                   : :Chapter 19
01:40:38.366                   : :Chapter 20