The Grinch 2018 x264 720p Esub BluRay Dual Audio English Hindi GOPI SAHI

Dr. Seuss' the Grinch (2018)


The Grinch (original title)

A grumpy Grinch (Benedict Cumberbatch) plots to ruin Christmas for the village of Whoville.
EN

Writers:

Michael LeSieur (screenplay by), Tommy Swerdlow (screenplay by) | 1 more credit »

6.3/10
45,360

Directed by
Produced by
Screenplay by
Based onHow the Grinch Stole Christmas!
by Dr. Seuss
Starring
Narrated byPharrell Williams
Music byDanny Elfman[1]
Edited byChris Cartagena
Production
companies
Distributed byUniversal Pictures[2]
Release date
Running time
86 minutes[3]
CountryUnited States
LanguageEnglish
Budget$75 million[4]
Box office$511.6 million[4]


The Grinch 2018 x264 720p Esub BluRay Dual Audio English Hindi GOPI SAHI

Format                         : Matroska
Format version                 : Version 4
File size                      : 679 MiB
Duration                       : 1 h 25 min
Overall bit rate               : 1 106 kb/s
Movie name                     : The Grinch 2018 GOPI SAHI
Encoded date                   : UTC 2020-09-26 01:21:13
Writing application            : mkvmerge v46.0.0 ('No Deeper Escape') 32-bit
Writing library                : libebml v1.3.10 + libmatroska v1.5.2

Video
ID                             : 1
Format                         : AVC
Format/Info                    : Advanced Video Codec
Format profile                 : [email protected]
Format settings                : CABAC / 5 Ref Frames
Format settings, CABAC         : Yes
Format settings, Reference fra : 5 frames
Codec ID                       : V_MPEG4/ISO/AVC
Duration                       : 1 h 25 min
Bit rate                       : 899 kb/s
Width                          : 1 280 pixels
Height                         : 534 pixels
Display aspect ratio           : 2.40:1
Frame rate mode                : Constant
Frame rate                     : 23.976 (24000/1001) FPS
Color space                    : YUV
Chroma subsampling             : 4:2:0
Bit depth                      : 8 bits
Scan type                      : Progressive
Bits/(Pixel*Frame)             : 0.055
Stream size                    : 551 MiB (81%)
Title                          : GOPI SAHI
Writing library                : x264 core 157 r2935 545de2f

Audio #1
ID                             : 2
Format                         : AAC LC
Format/Info                    : Advanced Audio Codec Low Complexity
Codec ID                       : A_AAC-2
Duration                       : 1 h 25 min
Bit rate                       : 96.0 kb/s
Channel(s)                     : 2 channels
Channel layout                 : L R
Sampling rate                  : 48.0 kHz
Frame rate                     : 46.875 FPS (1024 SPF)
Compression mode               : Lossy
Delay relative to video        : 89 ms
Stream size                    : 59.2 MiB (9%)
Title                          : GOPI SAHI
Language                       : Hindi
Default                        : Yes
Forced                         : No

Audio #2
ID                             : 3
Format                         : AAC LC
Format/Info                    : Advanced Audio Codec Low Complexity
Codec ID                       : A_AAC-2
Duration                       : 1 h 25 min
Bit rate                       : 96.0 kb/s
Channel(s)                     : 2 channels
Channel layout                 : L R
Sampling rate                  : 48.0 kHz
Frame rate                     : 46.875 FPS (1024 SPF)
Compression mode               : Lossy
Delay relative to video        : -21 ms
Stream size                    : 59.2 MiB (9%)
Title                          : GOPI SAHI
Language                       : English
Default                        : No
Forced                         : No

Text
ID                             : 4
Format                         : PGS
Muxing mode                    : zlib
Codec ID                       : S_HDMV/PGS
Codec ID/Info                  : Picture based subtitle format used on BDs/HD-DVDs
Duration                       : 1 h 20 min
Bit rate                       : 42.1 kb/s
Count of elements              : 2608
Stream size                    : 24.1 MiB (4%)
Title                          : GOPI SAHI
Language                       : English
Default                        : No
Forced                         : No